+6

Пчеловод / The Beekeeper (2024) BDRip 1080p от селезень | D, P, P2, A

Информация о фильме
Название: Пчеловод
Оригинальное название: The Beekeeper
Год выпуска: 2024
Жанр: Боевик, криминал
Режиссер: Дэвид Эйр
В ролях: Джейсон Стэйтем, Эмми Рэйвер-Лэмпман, Бобби Надери, Джош Хатчерсон, Джереми Айронс, Дэвид Уиттс, Михаэль Эпп, Тейлор Джеймс, Филисия Рашад, Джемма Редгрейв

О фильме:
Адам Клэй живет в тихом пригороде, занимается разведением пчел и не распространяется о своей прошлой жизни. Пожилая соседка рада, что в их край приехал заинтересованный человек, улучшающий природу и экологию. Пасечник часто общается с милой миссис Паркер, которая однажды становится жертвой финансовых мошенников. Аферисты похищают деньги со всех счетов женщины, и после тяжелого удара пенсионерка сводит счеты с жизнью. Адам решает за нее отомстить.

Выпущено: Великобритания, США, Cedar Park Entertainment, Miramax Films
Продолжительность: 01:45:14
Перевод 1: Профессиональный (полное дублирование) | Велес
Перевод 2: Профессиональный (многоголосый, закадровый) | TVShows
Перевод 3: Профессиональный (многоголосый, закадровый) | Jaskier 18 +
Перевод 4: Профессиональный (двухголосый, закадровый) | ViruseProject 18 +
Перевод 5: Авторский (одноголосый закадровый) | Михаил Чадов 18 +
Субтитры: Русские (Forced, Full (Stirlooo 18+)) английские

Файл
Формат: Matroska
Качество: BDRip 1080p
Видео: 1920×804 at 23.976 fps, [email protected], ~10000 kbps
Аудио 1: AC3, 6 ch, ~384 kbps — | Русский | Пчеловод / The Beekeeper (2024) BDRip 1080p от селезень | D, P, P2, A | Велес
Аудио 2: AC3, 6 ch, ~448 kbps — | Русский | TVShows
Аудио 3: AC3, 6 ch, ~384 kbps — | Русский | | Jaskier
Аудио 4: AC3, 6 ch, ~640 kbps — | Русский | | ViruseProject
Аудио 5: AC3, 6 ch, ~448 kbps — | Русский | | Михаил Чадов
Аудио 6: AC3, 6 ch, ~640 kbps — | Английский | | Original
Формат субтитров: softsub (SRT)

Авторизуйтесь для получения доступа к скачиванию

Нет аккаунта? Регистрация открыта и займёт меньше минуты

Вход Регистрация

General
Unique ID: 101627301062878604216408610624591944400 (0×4C74B4CB62D6E2634CC1309AD620DAD0)
Complete name: H: VideoHThe.Beekeeper.2023.D.P.A.BDRip.1080p.x264.seleZen.mkv
Format: Matroska
Format version: Version 4
File size: 9.51 GiB
Duration: 1 h 45 min
Overall bit rate: 12.9 Mb/s
Frame rate: 23.976 FPS
Movie name: The.Beekeeper.2023.D.P.A.BDRip.1080p.x264.seleZen
Encoded date: 17.06.2024 13:30:06 UTC
Writing application: mkvmerge v80.0 ('Roundabout') 64-bit
Writing library: libebml v1.4.4 + libmatroska v1.7.1
Cover: Yes
Attachments: cover.jpg / small_cover.jpg

Video
ID: 1
Format: AVC
Format/Info: Advanced Video Codec
Format profile: [email protected]
Format settings: CABAC / 5 Ref Frames
Format settings, CABAC: Yes
Format settings, Reference: 5 frames
Codec ID: V_MPEG4/ISO/AVC
Duration: 1 h 45 min
Bit rate: 10 000 kb/s
Width: 1 920 pixels
Height: 804 pixels
Display aspect ratio: 2.39:1
Frame rate mode: Constant
Frame rate: 23.976 (24000/1001) FPS
Color space: YUV
Chroma subsampling: 4:2:0
Bit depth: 8 bits
Scan type: Progressive
Bits/(Pixel*Frame): 0.270
Stream size: 7.34 GiB (77%)
Writing library: x264 core 164 r3164 seleZen
Encoding settings: cabac=1 / ref=5 / deblock=1:-2:-2 / analyse=0×3:0×133 / me=umh / subme=11 / psy=1 / psy_rd=1.02:0.04 / mixed_ref=1 / me_range=48 / chroma_me=1 / trellis=2 / 8×8dct=1 / cqm=0 / deadzone=21,11 / fast_pskip=0 / chroma_qp_offset=-3 / threads=25 / lookahead_threads=6 / sliced_threads=0 / nr=0 / decimate=0 / interlaced=0 / bluray_compat=0 / constrained_intra=0 / bframes=12 / b_pyramid=2 / b_adapt=2 / b_bias=0 / direct=3 / weightb=1 / open_gop=0 / weightp=2 / keyint=240 / keyint_min=23 / scenecut=40 / intra_refresh=0 / rc_lookahead=60 / rc=2pass / mbtree=0 / bitrate=10000 / ratetol=1.0 / qcomp=0.60 / qpmin=0 / qpmax=51 / qpstep=4 / cplxblur=20.0 / qblur=0.5 / vbv_maxrate=50000 / vbv_bufsize=62500 / nal_hrd=none / filler=0 / ip_ratio=1.40 / pb_ratio=1.30 / aq=3:0.80
Language: English
Default: Yes
Forced: No

Audio #1
ID: 2
Format: AC-3
Format/Info: Audio Coding 3
Commercial name: Dolby Digital
Codec ID: A_AC3
Duration: 1 h 45 min
Bit rate mode: Constant
Bit rate: 384 kb/s
Channel (s): 6 channels
Channel layout: L R C LFE Ls Rs
Sampling rate: 48.0 kHz
Frame rate: 31.250 FPS (1536 SPF)
Compression mode: Lossy
Stream size: 289 MiB (3%)
Title: Dub (Велес)
Language: Russian
Service kind: Complete Main
Default: Yes
Forced: No
Dialog Normalization: -27 dB
compr: -0.28 dB
cmixlev: -3.0 dB
surmixlev: -3 dB
mixlevel: 280 dB
roomtyp: Large
ltrtcmixlev: -3.0 dB
ltrtsurmixlev: -3.0 dB
lorocmixlev: -3.0 dB
lorosurmixlev: -4.5 dB
dialnorm_Average: -27 dB
dialnorm_Minimum: -27 dB
dialnorm_Maximum: -27 dB

Audio #2
ID: 3
Format: AC-3
Format/Info: Audio Coding 3
Commercial name: Dolby Digital
Codec ID: A_AC3
Duration: 1 h 45 min
Bit rate mode: Constant
Bit rate: 448 kb/s
Channel (s): 6 channels
Channel layout: L R C LFE Ls Rs
Sampling rate: 48.0 kHz
Frame rate: 31.250 FPS (1536 SPF)
Compression mode: Lossy
Stream size: 337 MiB (3%)
Title: MVO (TVShows)
Language: Russian
Service kind: Complete Main
Default: No
Forced: No
Dialog Normalization: -31 dB
cmixlev: -3.0 dB
surmixlev: -6 dB
dialnorm_Average: -31 dB
dialnorm_Minimum: -31 dB
dialnorm_Maximum: -31 dB

Audio #3
ID: 4
Format: AC-3
Format/Info: Audio Coding 3
Commercial name: Dolby Digital
Codec ID: A_AC3
Duration: 1 h 45 min
Bit rate mode: Constant
Bit rate: 384 kb/s
Channel (s): 6 channels
Channel layout: L R C LFE Ls Rs
Sampling rate: 48.0 kHz
Frame rate: 31.250 FPS (1536 SPF)
Compression mode: Lossy
Stream size: 289 MiB (3%)
Title: MVO (Jaskier) 18+
Language: Russian
Service kind: Complete Main
Default: No
Forced: No
Dialog Normalization: -31 dB
cmixlev: -4.5 dB
surmixlev: -6 dB
dialnorm_Average: -31 dB
dialnorm_Minimum: -31 dB
dialnorm_Maximum: -31 dB

Audio #4
ID: 5
Format: AC-3
Format/Info: Audio Coding 3
Commercial name: Dolby Digital
Codec ID: A_AC3
Duration: 1 h 45 min
Bit rate mode: Constant
Bit rate: 640 kb/s
Channel (s): 6 channels
Channel layout: L R C LFE Ls Rs
Sampling rate: 48.0 kHz
Frame rate: 31.250 FPS (1536 SPF)
Compression mode: Lossy
Stream size: 482 MiB (5%)
Title: DVO (ViruseProject) 18+
Language: Russian
Service kind: Complete Main
Default: No
Forced: No
Dialog Normalization: -31 dB
cmixlev: -4.5 dB
surmixlev: -6 dB
dialnorm_Average: -31 dB
dialnorm_Minimum: -31 dB
dialnorm_Maximum: -31 dB

Audio #5
ID: 6
Format: AC-3
Format/Info: Audio Coding 3
Commercial name: Dolby Digital
Codec ID: A_AC3
Duration: 1 h 45 min
Bit rate mode: Constant
Bit rate: 448 kb/s
Channel (s): 6 channels
Channel layout: L R C LFE Ls Rs
Sampling rate: 48.0 kHz
Frame rate: 31.250 FPS (1536 SPF)
Compression mode: Lossy
Stream size: 337 MiB (3%)
Title: AVO (Михаил Чадов)
Language: Russian
Service kind: Complete Main
Default: No
Forced: No
Dialog Normalization: -31 dB
compr: -0.28 dB
cmixlev: -3.0 dB
surmixlev: -3 dB
dialnorm_Average: -31 dB
dialnorm_Minimum: -31 dB
dialnorm_Maximum: -31 dB

Audio #6
ID: 7
Format: AC-3
Format/Info: Audio Coding 3
Commercial name: Dolby Digital
Codec ID: A_AC3
Duration: 1 h 45 min
Bit rate mode: Constant
Bit rate: 640 kb/s
Channel (s): 6 channels
Channel layout: L R C LFE Ls Rs
Sampling rate: 48.0 kHz
Frame rate: 31.250 FPS (1536 SPF)
Compression mode: Lossy
Stream size: 482 MiB (5%)
Title: Original
Language: English
Service kind: Complete Main
Default: No
Forced: No
Dialog Normalization: -31 dB
cmixlev: -4.5 dB
surmixlev: -6 dB
dialnorm_Average: -31 dB
dialnorm_Minimum: -31 dB
dialnorm_Maximum: -31 dB

Text #1
ID: 8
Format: UTF-8
Codec ID: S_TEXT/UTF8
Codec ID/Info: UTF-8 Plain Text
Duration: 57 min 32 s
Bit rate: 0 b/s
Frame rate: 0.001 FPS
Count of elements: 5
Stream size: 386 Bytes (0%)
Title: Forced
Language: Russian
Default: No
Forced: No

Text #2
ID: 9
Format: UTF-8
Codec ID: S_TEXT/UTF8
Codec ID/Info: UTF-8 Plain Text
Duration: 1 h 40 min
Bit rate: 95 b/s
Frame rate: 0.229 FPS
Count of elements: 1378
Stream size: 70.2 KiB (0%)
Title: Full (Stirlooo)
Language: Russian
Default: No
Forced: No

Text #3
ID: 10
Format: UTF-8
Codec ID: S_TEXT/UTF8
Codec ID/Info: UTF-8 Plain Text
Duration: 1 h 36 min
Bit rate: 63 b/s
Frame rate: 0.261 FPS
Count of elements: 1504
Stream size: 44.5 KiB (0%)
Title: Full
Language: English
Default: No
Forced: No

Text #4
ID: 11
Format: UTF-8
Codec ID: S_TEXT/UTF8
Codec ID/Info: UTF-8 Plain Text
Duration: 1 h 39 min
Bit rate: 73 b/s
Frame rate: 0.307 FPS
Count of elements: 1830
Stream size: 53.3 KiB (0%)
Title: SDH
Language: English
Default: No
Forced: No

Menu
00:00:00.000: en: Chapter 1
00:14:25.907: en: Chapter 2
00:29:43.407: en: Chapter 3
00:45:56.587: en: Chapter 4
00:59:35.322: en: Chapter 5
01:14:40.351: en: Chapter 6
01:27:46.428: en: Chapter 7
01:40:14.091: en: Chapter 8

Другие фильмы
У данной публикации пока нет комментариев.
Будь первым, оставь своё мнение в комментариях!
Информация
Посетители, находящиеся в группе Гости, не могут оставлять комментарии к данной публикации.
Самый популярный релиз недели
Донаты
Мы в соц. сетях / RSS

Лучшие релизы месяца
Лучшие SD недели
Лучшие 720p недели
Лучшие 1080p недели
Лучшие 4K недели
Вы недавно смотрели
Реклама
Последние комментарии
...

fataxdd

16 июля 2024 07:13

...

Rustik99

12 июля 2024 10:11

...

Rograr

6 июля 2024 19:56

...

fenix

2 июля 2024 07:45

...

Fidelrus

28 июня 2024 13:53

Реклама