+10

Очень плохой папочка / Christmas Is Canceled / The Fight Before Christmas (2021) BDRip 1080p от DoMiNo & селезень | D

Информация о фильме
Название: Очень плохой папочка
Оригинальное название: Christmas Is Canceled / The Fight Before Christmas
Год выхода: 2021
Жанр: Комедия
Режиссер: Прартана Мохан
В ролях: Хейли Оррантия, Дермот Малруни, Джанел Пэрриш, Майкл Наизу, Эмили Модафф, Лиза Макконнелл, Изабелла Малаксина, Камилль Валенсиа, Винсент Ранола, Мирелли Тейлор

О фильме:
Эмма мечтает встретить Рождество вместе с отцом по старой семейной традиции. Но отец девушки хочет, чтобы его новая возлюбленная тоже присутствовала на празднике. Эмма с ужасом узнает в избраннице папы Бренди, свою бывшую одноклассницу, которая когда-то увела у нее парня. И вот теперь коварная Бренди хочет забрать и отца Эммы. Героиня готова на все, чтобы разрушить отношения отца и одноклассницы.

Выпущено: США / The Line Film Company, Mar Vista Productions, Particular Crowd
Продолжительность: 01:34:42
Перевод: Дублированный | Кипарис
Субтитры: Английские (Full, SDH)

Файл
Формат: Matroska
Качество: BDRip 1080p
Видео: 1920x802 at 23.976 fps, [email protected], ~5733 kbps
Аудио 1: AC3, 6 ch, ~448 kbps - | Русский | Очень плохой папочка / Christmas Is Canceled / The Fight Before Christmas (2021) BDRip 1080p от DoMiNo & селезень | D
Аудио 2: AC3, 6 ch, ~640 kbps - | Английский |
Формат субтитров: softsub (SRT)

Авторизуйтесь для получения доступа к скачиванию

Нет аккаунта? Регистрация открыта и займёт меньше минуты

Вход Регистрация

x264 [info]: frame I: 1395 Avg QP: 12.39 size: 65154
x264 [info]: frame P: 33301 Avg QP: 15.24 size: 20381
x264 [info]: frame B: 101429 Avg QP: 17.46 size: 4651

General
Unique ID: 225454465827258556988182665150793985334 (0xA99CF35FFA4F60E3E78AAF9E255B2D36)
Complete name: U: Christmas.Is.Canceled.2021.DUB.BDRip.1080p.x264.seleZen.mkv
Format: Matroska
Format version: Version 4
File size: 4.51 GiB
Duration: 1 h 34 min
Overall bit rate: 6 823 kb/s
Frame rate: 23.976 FPS
Movie name: Christmas.Is.Canceled.2021.DUB.BDRip.1080p.x264.seleZen
Encoded date: 17.06.2024 09:03:53 UTC
Writing application: mkvmerge v85.0 ('Shame For You') 64-bit
Writing library: libebml v1.4.5 + libmatroska v1.7.1
Cover: Yes
Attachments: cover.jpg / small_cover.jpg

Video
ID: 1
Format: AVC
Format/Info: Advanced Video Codec
Format profile: [email protected]
Format settings: CABAC / 5 Ref Frames
Format settings, CABAC: Yes
Format settings, Reference: 5 frames
Codec ID: V_MPEG4/ISO/AVC
Duration: 1 h 34 min
Bit rate: 5 733 kb/s
Width: 1 920 pixels
Height: 802 pixels
Display aspect ratio: 2.39:1
Frame rate mode: Constant
Frame rate: 23.976 (24000/1001) FPS
Color space: YUV
Chroma subsampling: 4:2:0
Bit depth: 8 bits
Scan type: Progressive
Bits/(Pixel*Frame): 0.155
Stream size: 3.79 GiB (84%)
Title: -=DoMiNo=-
Writing library: x264 core 164 r3191 -DoMiNo
Encoding settings: cabac=1 / ref=5 / deblock=1:-3:-2 / analyse=0×3:0×133 / me=umh / subme=10 / psy=1 / psy_rd=1.05:0.05 / mixed_ref=1 / me_range=32 / chroma_me=1 / trellis=2 / 8×8dct=1 / cqm=0 / deadzone=21,11 / fast_pskip=0 / chroma_qp_offset=-3 / threads=24 / lookahead_threads=4 / sliced_threads=0 / nr=0 / decimate=1 / interlaced=0 / bluray_compat=0 / constrained_intra=0 / bframes=9 / b_pyramid=2 / b_adapt=2 / b_bias=0 / direct=1 / weightb=1 / open_gop=0 / weightp=2 / keyint=240 / keyint_min=23 / scenecut=40 / intra_refresh=0 / rc_lookahead=60 / rc=crf / mbtree=0 / crf=18.0 / qcomp=0.60 / qpmin=0 / qpmax=69 / qpstep=4 / vbv_maxrate=50000 / vbv_bufsize=62500 / crf_max=0.0 / nal_hrd=none / filler=0 / ip_ratio=1.40 / pb_ratio=1.22 / aq=3:0.80
Language: English
Default: Yes
Forced: No
Color range: Limited
Color primaries: BT.709
Transfer characteristics: BT.709
Matrix coefficients: BT.709

Audio #1
ID: 2
Format: AC-3
Format/Info: Audio Coding 3
Commercial name: Dolby Digital
Codec ID: A_AC3
Duration: 1 h 34 min
Bit rate mode: Constant
Bit rate: 448 kb/s
Channel (s): 6 channels
Channel layout: L R C LFE Ls Rs
Sampling rate: 48.0 kHz
Frame rate: 31.250 FPS (1536 SPF)
Compression mode: Lossy
Stream size: 303 MiB (7%)
Title: DUB -Кипарис
Language: Russian
Service kind: Complete Main
Default: Yes
Forced: No
Dialog Normalization: -25 dB
compr: -0.28 dB
cmixlev: -3.0 dB
surmixlev: -3 dB
dmixmod: Lo/Ro
ltrtcmixlev: -3.0 dB
ltrtsurmixlev: -3.0 dB
lorocmixlev: -3.0 dB
lorosurmixlev: -3.0 dB
dialnorm_Average: -25 dB
dialnorm_Minimum: -25 dB
dialnorm_Maximum: -25 dB

Audio #2
ID: 3
Format: AC-3
Format/Info: Audio Coding 3
Commercial name: Dolby Digital
Codec ID: A_AC3
Duration: 1 h 34 min
Bit rate mode: Constant
Bit rate: 640 kb/s
Channel (s): 6 channels
Channel layout: L R C LFE Ls Rs
Sampling rate: 48.0 kHz
Frame rate: 31.250 FPS (1536 SPF)
Compression mode: Lossy
Stream size: 434 MiB (9%)
Title: Original
Language: English
Service kind: Complete Main
Default: No
Forced: No
Dialog Normalization: -31 dB
cmixlev: -4.5 dB
surmixlev: -6 dB
dialnorm_Average: -31 dB
dialnorm_Minimum: -31 dB
dialnorm_Maximum: -31 dB

Text #1
ID: 4
Format: UTF-8
Codec ID: S_TEXT/UTF8
Codec ID/Info: UTF-8 Plain Text
Duration: 1 h 33 min
Bit rate: 79 b/s
Frame rate: 0.310 FPS
Count of elements: 1747
Stream size: 54.4 KiB (0%)
Title: Full
Language: English
Default: No
Forced: No

Text #2
ID: 5
Format: UTF-8
Codec ID: S_TEXT/UTF8
Codec ID/Info: UTF-8 Plain Text
Duration: 1 h 34 min
Bit rate: 85 b/s
Frame rate: 0.328 FPS
Count of elements: 1853
Stream size: 59.0 KiB (0%)
Title: SDH
Language: English
Default: No
Forced: No

Menu
00:00:00.000: Глава 1
00:09:49.130: Глава 2
00:18:40.911: Глава 3
00:30:58.523: Глава 4
00:45:05.828: Глава 5
00:54:58.503: Глава 6
01:06:37.743: Глава 7
01:18:17.401: Глава 8
01:32:34.507: Глава 9

Другие фильмы
У данной публикации пока нет комментариев.
Будь первым, оставь своё мнение в комментариях!
Информация
Посетители, находящиеся в группе Гости, не могут оставлять комментарии к данной публикации.
Самый популярный релиз недели
Донаты
Мы в соц. сетях / RSS

Лучшие релизы месяца
Лучшие SD недели
Лучшие 720p недели
Лучшие 1080p недели
Лучшие 4K недели
Вы недавно смотрели
Реклама
Последние комментарии
...

fataxdd

16 июля 2024 07:13

...

Rustik99

12 июля 2024 10:11

...

Rograr

6 июля 2024 19:56

...

fenix

2 июля 2024 07:45

...

Fidelrus

28 июня 2024 13:53

Реклама