+11

Омен. Непорочная / Immaculate (2024) BDRip 1080p от DoMiNo & селезень | D, P

Информация о фильме
Название: Омен. Непорочная
Оригинальное название: Immaculate
Год выпуска: 2024
Жанр: Ужасы
Режиссер: Майкл Мохан
В ролях: Сидни Суини, Альваро Морте, Симона Табаско, Бенедетта Поркароли, Джорджо Коланджели, Дора Романо, Джампьеро Джудика, Элизабетта Педрацци

О фильме:
Церковь знала лишь один случай непорочного зачатия, но, похоже, что новая монахиня Сесилия в итальянском монастыре стала второй девственницей, которая вынашивает ребенка. Местные монахи объявили о чуде, но никто точно не знает, кого на самом деле носит под сердцем девушка — нового спасителя или того, кто погрузит мир в вечную тьму.

Выпущено: Италия, США, Black Bear, Fifty-Fifty Films, Lupin Film
Продолжительность: 01:28:52
Перевод 1: Дублированный (неофициальный) | Soundmasters
Перевод 2: Профессиональный (многоголосый, закадровый) | Soundmasters
Субтитры: Русские (Full (stirlooo)), английские

Файл
Формат: Matroska
Качество: BDRip 1080p
Видео: 1920×960 at 23.976 fps, MPEG-4 AVC, ~8542 kbps
Аудио 1: AC3, 2 ch, ~192 kbps — | Русский | Омен. Непорочная / Immaculate (2024) BDRip 1080p от DoMiNo & селезень | D, P | DUB
Аудио 2: AC3, 6 ch, ~384 kbps — | Русский | | MVO
Аудио 3: AC3, 6 ch, ~640 kbps — | Английский |
Формат субтитров: softsub (SRT)

Авторизуйтесь для получения доступа к скачиванию

Нет аккаунта? Регистрация открыта и займёт меньше минуты

Вход Регистрация

*** Дебандинг, зерно.

x264 [info]: frame I: 595 Avg QP: 14.04 size: 159166
x264 [info]: frame P: 22203 Avg QP: 15.52 size: 73151
x264 [info]: frame B: 105044 Avg QP: 17.95 size: 37834
x264 [info]: consecutive B-frames: 1,1% 2,1% 4,7% 4,3% 6,4% 55,3% 4,4% 0,8% 2,1% 2,3% 4,1% 3,5% 3,1% 2,2% 1,5% 1,9% 0,2%

General
Unique ID: 300648147360532672031311646075631442335 (0xE22EBA1AE0AA589FA61920A99EC4199F)
Complete name: G: Immaculate.2024.BDRip.1080p.x264.seleZen.mkv
Format: Matroska
Format version: Version 4
File size: 6.06 GiB
Duration: 1 h 28 min
Overall bit rate: 9 750 kb/s
Frame rate: 23.976 FPS
Movie name: Immaculate.2024.BDRip.1080p.x264.seleZen
Encoded date: 16.06.2024 17:11:24 UTC
Writing application: mkvmerge v85.0 ('Shame For You') 64-bit
Writing library: libebml v1.4.5 + libmatroska v1.7.1
Cover: Yes
Attachments: cover.jpg / small_cover.jpg

Video
ID: 1
Format: AVC
Format/Info: Advanced Video Codec
Format profile: [email protected]
Format settings: CABAC / 4 Ref Frames
Format settings, CABAC: Yes
Format settings, Reference: 4 frames
Codec ID: V_MPEG4/ISO/AVC
Duration: 1 h 28 min
Bit rate: 8 542 kb/s
Width: 1 920 pixels
Height: 960 pixels
Display aspect ratio: 2.000
Frame rate mode: Constant
Frame rate: 23.976 (24000/1001) FPS
Color space: YUV
Chroma subsampling: 4:2:0
Bit depth: 8 bits
Scan type: Progressive
Bits/(Pixel*Frame): 0.193
Stream size: 5.30 GiB (88%)
Title: -=DoMiNo=-
Writing library: x264 core 164 r3191 -DoMiNo
Encoding settings: cabac=1 / ref=4 / deblock=1:-3:-2 / analyse=0×3:0×133 / me=umh / subme=10 / psy=1 / psy_rd=1.00:0.05 / mixed_ref=1 / me_range=32 / chroma_me=1 / trellis=2 / 8×8dct=1 / cqm=0 / deadzone=21,11 / fast_pskip=0 / chroma_qp_offset=-3 / threads=24 / lookahead_threads=6 / sliced_threads=0 / nr=0 / decimate=1 / interlaced=0 / bluray_compat=0 / constrained_intra=0 / bframes=16 / b_pyramid=2 / b_adapt=2 / b_bias=0 / direct=3 / weightb=1 / open_gop=0 / weightp=2 / keyint=250 / keyint_min=23 / scenecut=40 / intra_refresh=0 / rc_lookahead=60 / rc=crf / mbtree=0 / crf=19.3 / qcomp=0.60 / qpmin=0 / qpmax=69 / qpstep=4 / vbv_maxrate=50000 / vbv_bufsize=62500 / crf_max=0.0 / nal_hrd=none / filler=0 / ip_ratio=1.40 / pb_ratio=1.27 / aq=3:0.90
Language: English
Default: Yes
Forced: No
Color range: Limited
Color primaries: BT.709
Transfer characteristics: BT.709
Matrix coefficients: BT.709

Audio #1
ID: 2
Format: AC-3
Format/Info: Audio Coding 3
Commercial name: Dolby Digital
Codec ID: A_AC3
Duration: 1 h 28 min
Bit rate mode: Constant
Bit rate: 192 kb/s
Channel (s): 2 channels
Channel layout: L R
Sampling rate: 48.0 kHz
Frame rate: 31.250 FPS (1536 SPF)
Compression mode: Lossy
Stream size: 122 MiB (2%)
Title: DUB — Soundmasters
Language: Russian
Service kind: Complete Main
Default: Yes
Forced: No
Dialog Normalization: -31 dB
dialnorm_Average: -31 dB
dialnorm_Minimum: -31 dB
dialnorm_Maximum: -31 dB

Audio #2
ID: 3
Format: AC-3
Format/Info: Audio Coding 3
Commercial name: Dolby Digital
Codec ID: A_AC3
Duration: 1 h 28 min
Bit rate mode: Constant
Bit rate: 384 kb/s
Channel (s): 6 channels
Channel layout: L R C LFE Ls Rs
Sampling rate: 48.0 kHz
Frame rate: 31.250 FPS (1536 SPF)
Compression mode: Lossy
Stream size: 244 MiB (4%)
Title: MVO — Soundmasters
Language: Russian
Service kind: Complete Main
Default: No
Forced: No
Dialog Normalization: -31 dB
cmixlev: -4.5 dB
surmixlev: -6 dB
dialnorm_Average: -31 dB
dialnorm_Minimum: -31 dB
dialnorm_Maximum: -31 dB

Audio #3
ID: 4
Format: AC-3
Format/Info: Audio Coding 3
Commercial name: Dolby Digital
Codec ID: A_AC3
Duration: 1 h 28 min
Bit rate mode: Constant
Bit rate: 640 kb/s
Channel (s): 6 channels
Channel layout: L R C LFE Ls Rs
Sampling rate: 48.0 kHz
Frame rate: 31.250 FPS (1536 SPF)
Compression mode: Lossy
Stream size: 407 MiB (7%)
Title: Original
Language: English
Service kind: Complete Main
Default: No
Forced: No
Dialog Normalization: -31 dB
cmixlev: -4.5 dB
surmixlev: -6 dB
dialnorm_Average: -31 dB
dialnorm_Minimum: -31 dB
dialnorm_Maximum: -31 dB

Text #1
ID: 5
Format: UTF-8
Codec ID: S_TEXT/UTF8
Codec ID/Info: UTF-8 Plain Text
Duration: 1 h 19 min
Bit rate: 47 b/s
Frame rate: 0.117 FPS
Count of elements: 563
Stream size: 28.0 KiB (0%)
Title: Full (stirlooo)
Language: Russian
Default: No
Forced: No

Text #2
ID: 6
Format: UTF-8
Codec ID: S_TEXT/UTF8
Codec ID/Info: UTF-8 Plain Text
Duration: 1 h 22 min
Bit rate: 26 b/s
Frame rate: 0.121 FPS
Count of elements: 599
Stream size: 16.3 KiB (0%)
Title: Full
Language: English
Default: No
Forced: No

Menu
00:00:00.000: Глава 1
00:13:15.461: Глава 2
00:25:04.336: Глава 3
00:38:37.148: Глава 4
00:44:08.354: Глава 5
00:56:12.535: Глава 6
01:08:09.627: Глава 7
01:20:28.156: Глава 8
01:28:52.076: Глава 9

Другие фильмы
У данной публикации пока нет комментариев.
Будь первым, оставь своё мнение в комментариях!
Информация
Посетители, находящиеся в группе Гости, не могут оставлять комментарии к данной публикации.
Самый популярный релиз недели
Донаты
Мы в соц. сетях / RSS

Лучшие релизы месяца
Лучшие SD недели
Лучшие 720p недели
Лучшие 1080p недели
Лучшие 4K недели
Вы недавно смотрели
Реклама
Последние комментарии
...

fataxdd

16 июля 2024 07:13

...

Rustik99

12 июля 2024 10:11

...

Rograr

6 июля 2024 19:56

...

fenix

2 июля 2024 07:45

...

Fidelrus

28 июня 2024 13:53

Реклама