+6

Незнакомцы: Начало / The Strangers: Chapter 1 (2024) WEB-DL 720p от селезень | P

Информация о фильме
Название: Незнакомцы: Начало
Оригинальное название: The Strangers: Chapter 1
Год выпуска: 2024
Жанр: ужасы
Режиссер: Ренни Харлин / Renny Harlin
В ролях: Мэделин Петш, Фрой Гутьеррес, Гэбриел Бассо, Рэйчел Шентон, Ричард Брэйк, Бен Картрайт, Дженис Ахерн, Джордж Янг, Райан Боун, Ребекка Йонстон, Флориан Клэр, Майлз Йекинни, Рафаэлла Бискейн, Джей Ар Эспозито, Педро Леандро

О фильме:
Майя и Райан решили отметить пятую годовщину, не подозревая, что она может стать их последней. Путешествуя на своем пикапе через всю страну, они совершают вынужденную остановку в маленьком городе, где местные жители, даже дети, встречают их с большим интересом. Оставаться в этом странном месте пара не хочет, но вынуждена провести ночь в доме, куда вскоре нагрянут безумцы в кукольных масках.

Выпущено: США, Испания / Fifth Element Productions, Frame Film
Продолжительность: 01:31:10
Перевод: Профессиональный (многоголосый, закадровый) | HDRezka Studio
Субтитры: Русские (Forced, Full (stirlooo 18+)), английские (Full, SDH)

Файл
Формат: Matroska
Качество: WEB-DL 720p | AMZN
Видео: 1248x520 at 23.976 fps, MPEG-4 AVC, ~2901 kbps
Аудио 1: AC3, 2 ch, ~192 kbps - | Русский | Незнакомцы: Начало / The Strangers: Chapter 1 (2024) WEB-DL 720p от селезень | P
Аудио 2: E-AC3 JOC, 6 ch, ~768 kbps - | Английский |
Формат субтитров: softsub (SRT)

Авторизуйтесь для получения доступа к скачиванию

Нет аккаунта? Регистрация открыта и займёт меньше минуты

Вход Регистрация

General
Unique ID: 162348405740541953626499212891213712445 (0×7A232A6504CCF7BF009CC7EEF93ECC3D)
Complete name: R: The.Strangers.Chapter.1.2024.AMZN.WEB-DL.720p.x264.seleZen.mkv
Format: Matroska
Format version: Version 4
File size: 2.46 GiB
Duration: 1 h 31 min
Overall bit rate: 3 863 kb/s
Frame rate: 23.976 FPS
Movie name: The.Strangers.Chapter.1.2024.AMZN.WEB-DL.720p.x264.seleZen
Encoded date: 10.06.2024 10:56:14 UTC
Writing application: mkvmerge v85.0 ('Shame For You') 64-bit
Writing library: libebml v1.4.5 + libmatroska v1.7.1
Cover: Yes
Attachments: cover.jpg / small_cover.jpg

Video
ID: 1
Format: AVC
Format/Info: Advanced Video Codec
Format profile: [email protected]
Format settings: CABAC / 4 Ref Frames
Format settings, CABAC: Yes
Format settings, Reference: 4 frames
Codec ID: V_MPEG4/ISO/AVC
Duration: 1 h 31 min
Bit rate mode: Constant
Bit rate: 2 901 kb/s
Nominal bit rate: 4 000 kb/s
Width: 1 248 pixels
Height: 520 pixels
Display aspect ratio: 2.40:1
Frame rate mode: Constant
Frame rate: 23.976 (24000/1001) FPS
Color space: YUV
Chroma subsampling: 4:2:0
Bit depth: 8 bits
Scan type: Progressive
Bits/(Pixel*Frame): 0.186
Stream size: 1.85 GiB (75%)
Title: -=DoMiNo=-
Language: English (US)
Default: Yes
Forced: No
Color range: Limited
Color primaries: BT.709
Transfer characteristics: BT.709
Matrix coefficients: BT.709

Audio #1
ID: 2
Format: AC-3
Format/Info: Audio Coding 3
Commercial name: Dolby Digital
Codec ID: A_AC3
Duration: 1 h 31 min
Bit rate mode: Constant
Bit rate: 192 kb/s
Channel (s): 2 channels
Channel layout: L R
Sampling rate: 48.0 kHz
Frame rate: 31.250 FPS (1536 SPF)
Compression mode: Lossy
Stream size: 125 MiB (5%)
Title: MVO -HDRezka Studio
Language: Russian
Service kind: Complete Main
Default: Yes
Forced: No
Dialog Normalization: -31 dB
dialnorm_Average: -31 dB
dialnorm_Minimum: -31 dB
dialnorm_Maximum: -31 dB

Audio #2
ID: 3
Format: E-AC-3 JOC
Format/Info: Enhanced AC-3 with Joint Object Coding
Commercial name: Dolby Digital Plus with Dolby Atmos
Codec ID: A_EAC3
Duration: 1 h 31 min
Bit rate mode: Constant
Bit rate: 768 kb/s
Channel (s): 6 channels
Channel layout: L R C LFE Ls Rs
Sampling rate: 48.0 kHz
Frame rate: 31.250 FPS (1536 SPF)
Compression mode: Lossy
Delay relative to video: 20 ms
Stream size: 501 MiB (20%)
Language: English
Service kind: Complete Main
Default: No
Forced: No
Complexity index: 16
Number of dynamic objects: 15
Bed channel count: 1 channel
Bed channel configuration: LFE
Dialog Normalization: -29 dB
compr: -0.28 dB
dialnorm_Average: -29 dB
dialnorm_Minimum: -29 dB
dialnorm_Maximum: -29 dB

Text #1
ID: 4
Format: UTF-8
Codec ID: S_TEXT/UTF8
Codec ID/Info: UTF-8 Plain Text
Duration: 1 h 23 min
Bit rate: 0 b/s
Frame rate: 0.002 FPS
Count of elements: 8
Stream size: 307 Bytes (0%)
Title: Forced
Language: Russian
Default: No
Forced: No

Text #2
ID: 5
Format: UTF-8
Codec ID: S_TEXT/UTF8
Codec ID/Info: UTF-8 Plain Text
Duration: 1 h 24 min
Bit rate: 38 b/s
Frame rate: 0.110 FPS
Count of elements: 555
Stream size: 23.7 KiB (0%)
Title: Full
Language: Russian
Default: No
Forced: No

Text #3
ID: 6
Format: UTF-8
Codec ID: S_TEXT/UTF8
Codec ID/Info: UTF-8 Plain Text
Duration: 1 h 16 min
Bit rate: 29 b/s
Frame rate: 0.138 FPS
Count of elements: 636
Stream size: 16.5 KiB (0%)
Language: English
Default: No
Forced: No

Text #4
ID: 7
Format: UTF-8
Codec ID: S_TEXT/UTF8
Codec ID/Info: UTF-8 Plain Text
Duration: 1 h 30 min
Bit rate: 33 b/s
Frame rate: 0.164 FPS
Count of elements: 890
Stream size: 22.3 KiB (0%)
Title: SDH
Language: English
Default: No
Forced: No

Menu
00:00:00.000: en: Chapter 01
00:01:30.090: en: Chapter 02
00:13:55.460: en: Chapter 03
00:27:30.025: en: Chapter 04
00:39:32.497: en: Chapter 05
00:51:21.206: en: Chapter 06
01:02:46.599: en: Chapter 07
01:13:57.645: en: Chapter 08
01:23:18.998: en: Chapter 09

Другие фильмы
У данной публикации пока нет комментариев.
Будь первым, оставь своё мнение в комментариях!
Информация
Посетители, находящиеся в группе Гости, не могут оставлять комментарии к данной публикации.
Самый популярный релиз недели
Донаты
Мы в соц. сетях / RSS

Лучшие релизы месяца
Лучшие SD недели
Лучшие 720p недели
Лучшие 1080p недели
Лучшие 4K недели
Вы недавно смотрели
Реклама
Последние комментарии
...

Bonzo

14 июня 2024 14:52

...

rmzshka

13 июня 2024 17:48

...

rmzshka

13 июня 2024 12:24

...

LisNick

13 июня 2024 08:45

...

SkySpirit

8 июня 2024 19:54

Реклама