+13

Иди ко мне, детка / She Came to Me (2023) BDRip 720p от DoMiNo & селезень | D

Информация о фильме
Название: Иди ко мне, детка
Оригинальное название: She Came to Me
Год выхода: 2023
Жанр: драма, мелодрама, комедия
Режиссер: Ребекка Миллер
В ролях: Питер Динклэйдж, Энн Хэтэуэй, Мариса Томей, Ивэн Эллисон, Харлоу Джейн, Йоанна Кулиг, Брайан Д'Арси Джеймс, Джуди Голд, Энтони Рот Костанзо, Сэмюэл Х. Ливайн

О фильме:
Композитор Стивен Лауддем переживает творческий кризис и никак не может закончить свою грандиозную оперу. По настоянию своей жены Патрисии, которая до этого была его психологом, Стивен пускается на поиски вдохновения и знакомится с Катриной. Он и представить не мог, к чему это приведет. «Иди ко мне, детка» (2023) — драмеди с Питером Динклэйджем и Энн Хэтэуэй в главных ролях.

Страна: США
Студия: Killer Films, Round Films, Somewhere Pictures
Продолжительность: 01:41:57
Перевод: Дублированный | Мосфильм-Мастер
Субтитры: Русские (Forced, 2xFull), Английские

Файл
Формат: Matroska
Качество: BDRip 720p
Видео: 1280x720 at 23.976 fps, [email protected], ~6021 kbps
Аудио 1: AC3, 6 ch, ~640 kbps - | Русский | Иди ко мне, детка / She Came to Me (2023) BDRip 720p от DoMiNo & селезень | D
Аудио 2: AC3, 6 ch, ~640 kbps - | Английский |
Формат субтитров: softsub (SRT)

Авторизуйтесь для получения доступа к скачиванию

Нет аккаунта? Регистрация открыта и займёт меньше минуты

Вход Регистрация

x264 [info]: frame I: 971 Avg QP: 14.81 size: 104200
x264 [info]: frame P: 26560 Avg QP: 16.98 size: 58334
x264 [info]: frame B: 119140 Avg QP: 18.84 size: 24789

General
Unique ID: 280485300023680495069761999896878638402 (0xD30380FAD88BC79B3435898589A9E542)
Complete name: S: She.Came.to.Me.2023.DUB.BDRip.720p.x264.seleZen.mkv
Format: Matroska
Format version: Version 4
File size: 5.20 GiB
Duration: 1 h 41 min
Overall bit rate: 7 304 kb/s
Frame rate: 23.976 FPS
Movie name: She.Came.to.Me.2023.DUB.BDRip.720p.x264.seleZen
Encoded date: 10.06.2024 08:54:44 UTC
Writing application: mkvmerge v85.0 ('Shame For You') 64-bit
Writing library: libebml v1.4.5 + libmatroska v1.7.1
Cover: Yes
Attachments: cover.jpg / small_cover.jpg

Video
ID: 1
Format: AVC
Format/Info: Advanced Video Codec
Format profile: [email protected]
Format settings: CABAC / 9 Ref Frames
Format settings, CABAC: Yes
Format settings, Reference: 9 frames
Codec ID: V_MPEG4/ISO/AVC
Duration: 1 h 41 min
Bit rate: 6 021 kb/s
Width: 1 280 pixels
Height: 720 pixels
Display aspect ratio: 16:9
Frame rate mode: Constant
Frame rate: 23.976 (24000/1001) FPS
Color space: YUV
Chroma subsampling: 4:2:0
Bit depth: 8 bits
Scan type: Progressive
Bits/(Pixel*Frame): 0.272
Stream size: 4.29 GiB (82%)
Title: -=DoMiNo=-
Writing library: x264 core 164 r3191 -DoMiNo
Encoding settings: cabac=1 / ref=9 / deblock=1:-3:-2 / analyse=0×3:0×133 / me=umh / subme=10 / psy=1 / psy_rd=1.02:0.03 / mixed_ref=1 / me_range=32 / chroma_me=1 / trellis=2 / 8×8dct=1 / cqm=0 / deadzone=21,11 / fast_pskip=0 / chroma_qp_offset=-3 / threads=22 / lookahead_threads=5 / sliced_threads=0 / nr=0 / decimate=1 / interlaced=0 / bluray_compat=0 / constrained_intra=0 / bframes=12 / b_pyramid=2 / b_adapt=2 / b_bias=0 / direct=3 / weightb=1 / open_gop=0 / weightp=2 / keyint=250 / keyint_min=23 / scenecut=40 / intra_refresh=0 / rc_lookahead=60 / rc=crf / mbtree=0 / crf=18.0 / qcomp=0.60 / qpmin=0 / qpmax=69 / qpstep=4 / vbv_maxrate=50000 / vbv_bufsize=62500 / crf_max=0.0 / nal_hrd=none / filler=0 / ip_ratio=1.40 / pb_ratio=1.30 / aq=1:0.80
Language: English
Default: Yes
Forced: No
Color range: Limited
Color primaries: BT.709
Transfer characteristics: BT.709
Matrix coefficients: BT.709

Audio #1
ID: 2
Format: AC-3
Format/Info: Audio Coding 3
Commercial name: Dolby Digital
Codec ID: A_AC3
Duration: 1 h 41 min
Bit rate mode: Constant
Bit rate: 640 kb/s
Channel (s): 6 channels
Channel layout: L R C LFE Ls Rs
Sampling rate: 48.0 kHz
Frame rate: 31.250 FPS (1536 SPF)
Compression mode: Lossy
Stream size: 467 MiB (9%)
Title: Дублированный | Мосфильм-Мастер
Language: Russian
Service kind: Complete Main
Default: Yes
Forced: No
Dialog Normalization: -31 dB
cmixlev: -3.0 dB
surmixlev: -3 dB
dialnorm_Average: -31 dB
dialnorm_Minimum: -31 dB
dialnorm_Maximum: -31 dB

Audio #2
ID: 3
Format: AC-3
Format/Info: Audio Coding 3
Commercial name: Dolby Digital
Codec ID: A_AC3
Duration: 1 h 41 min
Bit rate mode: Constant
Bit rate: 640 kb/s
Channel (s): 6 channels
Channel layout: L R C LFE Ls Rs
Sampling rate: 48.0 kHz
Frame rate: 31.250 FPS (1536 SPF)
Compression mode: Lossy
Stream size: 467 MiB (9%)
Language: English
Service kind: Complete Main
Default: No
Forced: No
Dialog Normalization: -31 dB
cmixlev: -4.5 dB
surmixlev: -6 dB
dialnorm_Average: -31 dB
dialnorm_Minimum: -31 dB
dialnorm_Maximum: -31 dB

Text #1
ID: 4
Format: UTF-8
Codec ID: S_TEXT/UTF8
Codec ID/Info: UTF-8 Plain Text
Duration: 1 h 24 min
Bit rate: 5 b/s
Frame rate: 0.014 FPS
Count of elements: 72
Stream size: 3.12 KiB (0%)
Title: Forced
Language: Russian
Default: No
Forced: No

Text #2
ID: 5
Format: UTF-8
Codec ID: S_TEXT/UTF8
Codec ID/Info: UTF-8 Plain Text
Duration: 1 h 35 min
Bit rate: 98 b/s
Frame rate: 0.256 FPS
Count of elements: 1473
Stream size: 69.5 KiB (0%)
Title: Full v.1
Language: Russian
Default: No
Forced: No

Text #3
ID: 6
Format: UTF-8
Codec ID: S_TEXT/UTF8
Codec ID/Info: UTF-8 Plain Text
Duration: 1 h 37 min
Bit rate: 95 b/s
Frame rate: 0.271 FPS
Count of elements: 1585
Stream size: 67.8 KiB (0%)
Title: Full v.2
Language: Russian
Default: No
Forced: No

Text #4
ID: 7
Format: UTF-8
Codec ID: S_TEXT/UTF8
Codec ID/Info: UTF-8 Plain Text
Duration: 1 h 12 min
Bit rate: 0 b/s
Frame rate: 0.001 FPS
Count of elements: 3
Stream size: 63.0 Bytes (0%)
Title: Forced
Language: English
Default: No
Forced: No

Text #5
ID: 8
Format: UTF-8
Codec ID: S_TEXT/UTF8
Codec ID/Info: UTF-8 Plain Text
Duration: 1 h 34 min
Bit rate: 67 b/s
Frame rate: 0.280 FPS
Count of elements: 1586
Stream size: 46.4 KiB (0%)
Title: Full
Language: English
Default: No
Forced: No

Text #6
ID: 9
Format: UTF-8
Codec ID: S_TEXT/UTF8
Codec ID/Info: UTF-8 Plain Text
Duration: 1 h 36 min
Bit rate: 69 b/s
Frame rate: 0.299 FPS
Count of elements: 1737
Stream size: 49.6 KiB (0%)
Title: SDH
Language: English
Default: No
Forced: No

Menu
00:00:00.000: en: chapter01
00:13:57.962: en: chapter02
00:29:03.742: en: chapter03
00:42:15.199: en: chapter04
00:55:35.457: en: chapter05
01:09:07.393: en: chapter06
01:23:02.852: en: chapter07
01:35:31.726: en: chapter08

Другие фильмы
У данной публикации пока нет комментариев.
Будь первым, оставь своё мнение в комментариях!
Информация
Посетители, находящиеся в группе Гости, не могут оставлять комментарии к данной публикации.
Самый популярный релиз недели
Донаты
Мы в соц. сетях / RSS

Лучшие релизы месяца
Лучшие SD недели
Лучшие 720p недели
Лучшие 1080p недели
Лучшие 4K недели
Вы недавно смотрели
Реклама
Последние комментарии
...

Bonzo

14 июня 2024 14:52

...

rmzshka

13 июня 2024 17:48

...

rmzshka

13 июня 2024 12:24

...

LisNick

13 июня 2024 08:45

...

SkySpirit

8 июня 2024 19:54

Реклама