+16

Марс Экспресс / Mars Express (2023) BDRip 720p от DoMiNo & селезень | D, P

Информация о фильме
Название: Марс Экспресс
Оригинальное название: Mars Express
Год выхода: 2023
Жанр: мультфильм, фантастика, боевик, триллер, детектив
Режиссер: Жереми Перен
В ролях: Леа Дрюкер, Матьё Амальрик, Дэниэл Нджо Лобе, Мари Буве, Себастьян Шассань, Марта Келлер, Женевьева Доан, Тома Родити, Тьерри Жан, Серж Фалю

Описание:
2200 год, планета Марс. В центре сюжета два частных сыщика — Алин Руби и ее напарник андроид Карлос Ривьера. По заданию состоятельного клиента детективы выслеживают студентку-хакера, создавшую код для снятия всех этических ограничений с роботов. Им придется столкнуться с мозговыми фермами, коррупцией и тайнами, угрожающими изменить облик вселенной.

Страна: Франция
Студия: Everybody on the Deck, Je Suis Bien Content, Ev.L Prod
Продолжительность: 01:28:35
Перевод 1: Дублированный | Студийная банда
Перевод 2: Профессиональный (многоголосый, закадровый) | HDRezka Studio
Перевод 3: Профессиональный (многоголосый, закадровый) | NewStation
Субтитры: Русские (Forced, Full), французские, английские

Файл
Формат: Matroska
Качество: BDRip 720p
Видео: 1280x640 at 24.000 fps, [email protected], ~1693 kbps
Аудио 1: AC3, 6 ch, ~640 kbps - | Русский | Марс Экспресс / Mars Express (2023) BDRip 720p от DoMiNo & селезень | D, P | Студийная банда
Аудио 2: AC3, 2 ch, ~192 kbps - | Русский | | HDRezka Studio
Аудио 3: AC3, 6 ch, ~640 kbps - | Русский | | NewStation
Аудио 4: AC3, 6 ch, ~640 kbps - | Французский | | Original
Формат субтитров: softsub (SRT)

Авторизуйтесь для получения доступа к скачиванию

Нет аккаунта? Регистрация открыта и займёт меньше минуты

Вход Регистрация

x264 [info]: frame I:1279 Avg QP:13.78 size: 69937
x264 [info]: frame P:26594 Avg QP:15.70 size: 20760
x264 [info]: frame B:99699 Avg QP:17.26 size: 4851

General
Unique ID : 219661836675775575589729570246722748188 (0xA54154B5293729365CBC37826C0E7F1C)
Complete name : S:Mars.Express.2023.BDRip.720p.x264.seleZen.mkv
Format : Matroska
Format version : Version 4
File size : 2.36 GiB
Duration : 1 h 28 min
Overall bit rate : 3 807 kb/s
Frame rate : 24.000 FPS
Movie name : Mars.Express.2023.BDRip.720p.x264.seleZen
Encoded date : 2024-06-05 04:46:17 UTC
Writing application : mkvmerge v84.0 ('Sleeper') 64-bit
Writing library : libebml v1.4.5 + libmatroska v1.7.1
Cover : Yes
Attachments : cover.jpg / small_cover.jpg

Video
ID : 1
Format : AVC
Format/Info : Advanced Video Codec
Format profile : [email protected]
Format settings : CABAC / 10 Ref Frames
Format settings, CABAC : Yes
Format settings, Reference : 10 frames
Codec ID : V_MPEG4/ISO/AVC
Duration : 1 h 28 min
Bit rate : 1 693 kb/s
Width : 1 280 pixels
Height : 640 pixels
Display aspect ratio : 2.000
Frame rate mode : Constant
Frame rate : 24.000 FPS
Color space : YUV
Chroma subsampling : 4:2:0
Bit depth : 8 bits
Scan type : Progressive
Bits/(Pixel*Frame) : 0.086
Stream size : 1.05 GiB (44%)
Title : Дублированный | Студийная банда
Writing library : x264 core 164 r3191 -DoMiNo
Encoding settings : cabac=1 / ref=10 / deblock=1:-2:-2 / analyse=0x3:0x133 / me=umh / subme=10 / psy=1 / psy_rd=1.03:0.05 / mixed_ref=1 / me_range=32 / chroma_me=1 / trellis=2 / 8x8dct=1 / cqm=0 / deadzone=21,11 / fast_pskip=0 / chroma_qp_offset=-3 / threads=20 / lookahead_threads=5 / sliced_threads=0 / nr=0 / decimate=1 / interlaced=0 / bluray_compat=0 / constrained_intra=0 / bframes=10 / b_pyramid=2 / b_adapt=2 / b_bias=0 / direct=3 / weightb=1 / open_gop=0 / weightp=2 / keyint=240 / keyint_min=24 / scenecut=40 / intra_refresh=0 / rc_lookahead=60 / rc=crf / mbtree=0 / crf=18.0 / qcomp=0.60 / qpmin=0 / qpmax=69 / qpstep=4 / vbv_maxrate=50000 / vbv_bufsize=62500 / crf_max=0.0 / nal_hrd=none / filler=0 / ip_ratio=1.40 / pb_ratio=1.30 / aq=2:0.90
Language : English
Default : Yes
Forced : No

Audio #1
ID : 2
Format : AC-3
Format/Info : Audio Coding 3
Commercial name : Dolby Digital
Codec ID : A_AC3
Duration : 1 h 28 min
Bit rate mode : Constant
Bit rate : 640 kb/s
Channel(s) : 6 channels
Channel layout : L R C LFE Ls Rs
Sampling rate : 48.0 kHz
Frame rate : 31.250 FPS (1536 SPF)
Compression mode : Lossy
Stream size : 404 MiB (17%)
Title : Дублированный | Студийная банда
Language : Russian
Service kind : Complete Main
Default : Yes
Forced : No
Dialog Normalization : -24 dB
cmixlev : -3.0 dB
surmixlev : -3 dB
ltrtcmixlev : -3.0 dB
ltrtsurmixlev : -3.0 dB
lorocmixlev : -3.0 dB
lorosurmixlev : -3.0 dB
dialnorm_Average : -24 dB
dialnorm_Minimum : -24 dB
dialnorm_Maximum : -24 dB

Audio #2
ID : 3
Format : AC-3
Format/Info : Audio Coding 3
Commercial name : Dolby Digital
Codec ID : A_AC3
Duration : 1 h 28 min
Bit rate mode : Constant
Bit rate : 192 kb/s
Channel(s) : 2 channels
Channel layout : L R
Sampling rate : 48.0 kHz
Frame rate : 31.250 FPS (1536 SPF)
Compression mode : Lossy
Stream size : 122 MiB (5%)
Title : MVO - HDRezka Studio
Language : Russian
Service kind : Complete Main
Default : No
Forced : No
Dialog Normalization : -22 dB
compr : -0.28 dB
ltrtcmixlev : -3.0 dB
ltrtsurmixlev : -3.0 dB
lorocmixlev : -3.0 dB
lorosurmixlev : -3.0 dB
dialnorm_Average : -22 dB
dialnorm_Minimum : -22 dB
dialnorm_Maximum : -22 dB

Audio #3
ID : 4
Format : AC-3
Format/Info : Audio Coding 3
Commercial name : Dolby Digital
Codec ID : A_AC3
Duration : 1 h 28 min
Bit rate mode : Constant
Bit rate : 640 kb/s
Channel(s) : 6 channels
Channel layout : L R C LFE Ls Rs
Sampling rate : 48.0 kHz
Frame rate : 31.250 FPS (1536 SPF)
Compression mode : Lossy
Stream size : 405 MiB (17%)
Title : MVO- NewStation
Language : Russian
Service kind : Complete Main
Default : No
Forced : No
Dialog Normalization : -27 dB
compr : 1.02 dB
cmixlev : -3.0 dB
surmixlev : -3 dB
mixlevel : 285 dB
roomtyp : Small
dialnorm_Average : -27 dB
dialnorm_Minimum : -27 dB
dialnorm_Maximum : -27 dB

Audio #4
ID : 5
Format : AC-3
Format/Info : Audio Coding 3
Commercial name : Dolby Digital
Codec ID : A_AC3
Duration : 1 h 28 min
Bit rate mode : Constant
Bit rate : 640 kb/s
Channel(s) : 6 channels
Channel layout : L R C LFE Ls Rs
Sampling rate : 48.0 kHz
Frame rate : 31.250 FPS (1536 SPF)
Compression mode : Lossy
Stream size : 405 MiB (17%)
Language : French
Service kind : Complete Main
Default : No
Forced : No
Dialog Normalization : -31 dB
cmixlev : -4.5 dB
surmixlev : -6 dB
dialnorm_Average : -31 dB
dialnorm_Minimum : -31 dB
dialnorm_Maximum : -31 dB

Text #1
ID : 6
Format : UTF-8
Codec ID : S_TEXT/UTF8
Codec ID/Info : UTF-8 Plain Text
Duration : 1 h 11 min
Bit rate : 3 b/s
Frame rate : 0.010 FPS
Count of elements : 42
Stream size : 1.85 KiB (0%)
Title : Forced
Language : Russian
Default : No
Forced : No

Text #2
ID : 7
Format : UTF-8
Codec ID : S_TEXT/UTF8
Codec ID/Info : UTF-8 Plain Text
Duration : 1 h 20 min
Bit rate : 87 b/s
Frame rate : 0.201 FPS
Count of elements : 973
Stream size : 51.6 KiB (0%)
Title : Full
Language : Russian
Default : No
Forced : No

Text #3
ID : 8
Format : UTF-8
Codec ID : S_TEXT/UTF8
Codec ID/Info : UTF-8 Plain Text
Duration : 1 h 20 min
Bit rate : 49 b/s
Frame rate : 0.201 FPS
Count of elements : 973
Stream size : 29.1 KiB (0%)
Language : English
Default : No
Forced : No

Text #4
ID : 9
Format : UTF-8
Codec ID : S_TEXT/UTF8
Codec ID/Info : UTF-8 Plain Text
Duration : 1 h 27 min
Bit rate : 54 b/s
Frame rate : 0.207 FPS
Count of elements : 1086
Stream size : 34.9 KiB (0%)
Language : French
Default : No
Forced : No

Menu
00:00:00.000 : Chapitre 01
00:09:32.917 : Chapitre 02
00:21:05.250 : Chapitre 03
00:29:12.792 : Chapitre 04
00:39:40.125 : Chapitre 05
00:48:30.917 : Chapitre 06
00:58:08.958 : Chapitre 07
01:10:24.750 : Chapitre 08
01:19:18.708 : Chapitre 09

Другие фильмы
У данной публикации пока нет комментариев.
Будь первым, оставь своё мнение в комментариях!
Информация
Посетители, находящиеся в группе Гости, не могут оставлять комментарии к данной публикации.
Самый популярный релиз недели
Донаты
Мы в соц. сетях / RSS

Лучшие релизы месяца
Лучшие SD недели
Лучшие 720p недели
Лучшие 1080p недели
Лучшие 4K недели
Вы недавно смотрели
Реклама
Последние комментарии
...

Bonzo

14 июня 2024 14:52

...

rmzshka

13 июня 2024 17:48

...

rmzshka

13 июня 2024 12:24

...

LisNick

13 июня 2024 08:45

...

SkySpirit

8 июня 2024 19:54

Реклама