+6

Единорог Тельма / Thelma the Unicorn (2024) WEB-DLRip 720p от DoMiNo & селезень | D

Информация о фильме
Название: Единорог Тельма
Оригинальное название: Thelma the Unicorn
Год выпуска: 2024
Страна: Канада, США
Жанр: Мультфильм, мюзикл, фэнтези, комедия, приключения, семейный
Режиссёр: Джаред Хесс / Jared Hess, Линн Ванг / Lynn Wang
В ролях: Бриттани Ховард, Уилл Форте, Джон Хидер, Даран Норрис, Дэвид Мичи, Бетси Содаро, Линн Ванг, Пэм Коутс, Мишель Джубили Гонсалес, Шондрелла Эйвери, Эктор Хименес, Гено Седжерс, Шерри Кола, Мэттью Вульф, Зак Галифианакис

Описание:
Пони, мечтающая о славе, становится известной, когда превращается в блестящего единорога. Но быть знаменитостью — непростая задача.

Выпущено: США, Канада / BuzzFeed Motion Pictures, Buzzfeed Studios, Matchbox Hero, Mikros Animation, Netflix Animation, Netflix Studios, Scholastic Entertainment
Продолжительность: 01:38:07
Перевод: Профессиональный (дублированный) | Студия Видеофильм
Субтитры: Русские (Forced, Full), Английские (Full, SDH)

Файл
Формат: Matroska
Качество: WEB-DLRip 720p
Видео: 1280x692 at 24.000 fps, [email protected], ~2778 kbps
Аудио: AC3, 6 ch, ~640 kbps - | Русский | Единорог Тельма / Thelma the Unicorn (2024) WEB-DLRip 720p от DoMiNo & селезень | D
Формат субтитров: softsub (SRT)

Авторизуйтесь для получения доступа к скачиванию

Нет аккаунта? Регистрация открыта и займёт меньше минуты

Вход Регистрация

General
Unique ID: 157133030975025248448259156547856956498 (0×7636B890E19B41A97E0BED38433AFC52)
Complete name: S: Thelma.the.Unicorn.2024.DUB.WEB-DLRip.720p.x264.seleZen.mkv
Format: Matroska
Format version: Version 4
File size: 2.34 GiB
Duration: 1 h 38 min
Overall bit rate: 3 420 kb/s
Frame rate: 24.000 FPS
Movie name: Thelma.the.Unicorn.2024.DUB.WEB-DLRip.720p.x264.seleZen
Encoded date: 17.05.2024 14:04:55 UTC
Writing application: mkvmerge v84.0 ('Sleeper') 64-bit
Writing library: libebml v1.4.5 + libmatroska v1.7.1
Cover: Yes
Attachments: cover.jpg / small_cover.jpg

Video
ID: 1
Format: AVC
Format/Info: Advanced Video Codec
Format profile: [email protected]
Format settings: CABAC / 5 Ref Frames
Format settings, CABAC: Yes
Format settings, Reference: 5 frames
Codec ID: V_MPEG4/ISO/AVC
Duration: 1 h 38 min
Bit rate: 2 778 kb/s
Width: 1 280 pixels
Height: 692 pixels
Display aspect ratio: 1.85:1
Frame rate mode: Constant
Frame rate: 24.000 FPS
Color space: YUV
Chroma subsampling: 4:2:0
Bit depth: 8 bits
Scan type: Progressive
Bits/(Pixel*Frame): 0.131
Stream size: 1.90 GiB (81%)
Title: -=DoMiNo=-
Writing library: x264 core 164 r3191 4613ac3
Encoding settings: cabac=1 / ref=5 / deblock=1:0:0 / analyse=0×3:0×133 / me=umh / subme=10 / psy=1 / psy_rd=1.00:0.00 / mixed_ref=1 / me_range=32 / chroma_me=1 / trellis=2 / 8×8dct=1 / cqm=0 / deadzone=21,11 / fast_pskip=0 / chroma_qp_offset=-2 / threads=22 / lookahead_threads=5 / sliced_threads=0 / nr=0 / decimate=1 / interlaced=0 / bluray_compat=0 / constrained_intra=0 / bframes=10 / b_pyramid=2 / b_adapt=2 / b_bias=0 / direct=3 / weightb=1 / open_gop=0 / weightp=2 / keyint=240 / keyint_min=24 / scenecut=40 / intra_refresh=0 / rc_lookahead=60 / rc=crf / mbtree=0 / crf=20.0 / qcomp=0.60 / qpmin=0 / qpmax=69 / qpstep=4 / vbv_maxrate=50000 / vbv_bufsize=62500 / crf_max=0.0 / nal_hrd=none / filler=0 / ip_ratio=1.40 / pb_ratio=1.30 / aq=1:1.00
Language: English
Default: Yes
Forced: No
Color range: Limited
Color primaries: BT.709
Transfer characteristics: BT.709
Matrix coefficients: BT.709

Audio
ID: 2
Format: AC-3
Format/Info: Audio Coding 3
Commercial name: Dolby Digital
Codec ID: A_AC3
Duration: 1 h 38 min
Bit rate mode: Constant
Bit rate: 640 kb/s
Channel (s): 6 channels
Channel layout: L R C LFE Ls Rs
Sampling rate: 48.0 kHz
Frame rate: 31.250 FPS (1536 SPF)
Compression mode: Lossy
Stream size: 449 MiB (19%)
Title: Dub [Студия Видеофильм]
Language: Russian
Service kind: Complete Main
Default: Yes
Forced: No
Dialog Normalization: -27 dB
compr: -0.28 dB
cmixlev: -3.0 dB
surmixlev: -3 dB
mixlevel: 285 dB
roomtyp: 3
ltrtcmixlev: -3.0 dB
ltrtsurmixlev: -3.0 dB
lorocmixlev: -3.0 dB
lorosurmixlev: -4.5 dB
dialnorm_Average: -27 dB
dialnorm_Minimum: -27 dB
dialnorm_Maximum: -27 dB

Text #1
ID: 3
Format: UTF-8
Codec ID: S_TEXT/UTF8
Codec ID/Info: UTF-8 Plain Text
Duration: 1 h 25 min
Bit rate: 4 b/s
Frame rate: 0.020 FPS
Count of elements: 103
Stream size: 2.92 KiB (0%)
Title: Forced
Language: Russian
Default: No
Forced: No

Text #2
ID: 4
Format: UTF-8
Codec ID: S_TEXT/UTF8
Codec ID/Info: UTF-8 Plain Text
Duration: 1 h 32 min
Bit rate: 95 b/s
Frame rate: 0.256 FPS
Count of elements: 1427
Stream size: 65.1 KiB (0%)
Title: Full
Language: Russian
Default: No
Forced: No

Text #3
ID: 5
Format: UTF-8
Codec ID: S_TEXT/UTF8
Codec ID/Info: UTF-8 Plain Text
Duration: 1 h 32 min
Bit rate: 79 b/s
Frame rate: 0.274 FPS
Count of elements: 1529
Stream size: 54.1 KiB (0%)
Title: Full
Language: English
Default: No
Forced: No

Text #4
ID: 6
Format: UTF-8
Codec ID: S_TEXT/UTF8
Codec ID/Info: UTF-8 Plain Text
Duration: 1 h 33 min
Bit rate: 96 b/s
Frame rate: 0.342 FPS
Count of elements: 1912
Stream size: 65.8 KiB (0%)
Title: SDH
Language: English
Default: No
Forced: No

Menu
00:00:00.000: en: Chapter 01
00:05:50.000: en: Chapter 02
00:11:40.000: en: Chapter 03
00:17:30.000: en: Chapter 04
00:23:20.000: en: Chapter 05
00:29:10.000: en: Chapter 06
00:35:00.000: en: Chapter 07
00:40:50.000: en: Chapter 08
00:46:40.000: en: Chapter 09
00:52:30.000: en: Chapter 10
00:58:20.000: en: Chapter 11
01:04:10.000: en: Chapter 12
01:10:00.000: en: Chapter 13
01:15:50.000: en: Chapter 14
01:21:40.000: en: Chapter 15
01:27:30.000: en: Chapter 16
01:33:20.000: en: Chapter 17

Другие фильмы
У данной публикации пока нет комментариев.
Будь первым, оставь своё мнение в комментариях!
Информация
Посетители, находящиеся в группе Гости, не могут оставлять комментарии к данной публикации.
Самый популярный релиз недели
Донаты
Мы в соц. сетях / RSS

Лучшие релизы месяца
Лучшие SD недели
Лучшие 720p недели
Лучшие 1080p недели
Лучшие 4K недели
Вы недавно смотрели
Реклама
Последние комментарии
...

Bonzo

14 июня 2024 14:52

...

rmzshka

13 июня 2024 17:48

...

rmzshka

13 июня 2024 12:24

...

LisNick

13 июня 2024 08:45

...

SkySpirit

8 июня 2024 19:54

Реклама