+19

Годзилла и Конг: Новая империя / Godzilla x Kong: The New Empire (2024) BDRip 720p от DoMiNo & селезень | D, P

Информация о фильме
Название: Годзилла и Конг: Новая империя
Оригинальное название: Godzilla x Kong: The New Empire
Год выхода: 2024
Жанр: фантастика, боевик
Режиссер: Адам Вингард
В ролях: Ребекка Холл, Брайан Тайри Генри, Дэн Стивенс, Кэйли Хоттл, Алекс Фернс, Чэнь Фала, Рэйчел Хаус, Рональд Смик, Чантелл Джемисон, Грег Хаттон

О фильме:
Два древних титана, Годзилла и Конг, сражаются в эпической битве, пока люди разгадывают их происхождение и связь с тайнами Острова черепа.

Страна: США, Австралия
Студия: Legendary Pictures, Screen Queensland, Warner Bros.
Продолжительность: 01:54:41
Перевод 1: Дублированный | Bravo Records Georgia / Movie Dubbing
Перевод 2: Дублированный (неофициальный) | Red Head Sound
Перевод 3: Профессиональный (многоголосый закадровый) | Jaskier
Субтитры: Русские (Forced, full), английские

Файл
Формат: Matroska
Качество: BDRip 720p
Видео: 1280x534 at 23.976 fps, [email protected], ~5983 kbps
Аудио #01: 48 kHz, AC3, 5.1, 384 Kbps | DUB - | Русский | Годзилла и Конг: Новая империя / Godzilla x Kong: The New Empire (2024) BDRip 720p от DoMiNo & селезень | D, P | Bravo Records Georgia / Movie Dubbing
Аудио #02: 48 kHz, E-AC3, 5.1, 384 Kbps | DUB - | Русский | | Bravo Records Georgia / Movie Dubbing
Аудио #03: 48 kHz, AC3, 2.0, 192 Kbps | DUB - | Русский | | Red Head Sound
Аудио #04: 48 kHz, AC3, 5.1, 384 Kbps | MVO - | Русский | | Jaskier
Аудио #05: 48 kHz, AC, 5.1, 640 Kbps - | Английский | | Original
Формат субтитров: softsub (SRT)

Авторизуйтесь для получения доступа к скачиванию

Нет аккаунта? Регистрация открыта и займёт меньше минуты

Вход Регистрация

General
Unique ID : 35683017076772285397931738968591153019 (0x1AD84C926F68A55F5E707BA5D877B77B)
Complete name : T:Godzilla.x.Kong.The.New.Empire.2024.BDRip.720p.x264.seleZen.mkv
Format : Matroska
Format version : Version 4
File size : 6.38 GiB
Duration : 1 h 54 min
Overall bit rate : 7 970 kb/s
Frame rate : 23.976 FPS
Movie name : Godzilla.x.Kong.The.New.Empire.2024.BDRip.720p.x264.seleZen
Encoded date : 2024-06-07 10:53:09 UTC
Writing application : mkvmerge v85.0 ('Shame For You') 64-bit
Writing library : libebml v1.4.5 + libmatroska v1.7.1
Cover : Yes
Attachments : cover.jpg / small_cover.jpg

Video
ID : 1
Format : AVC
Format/Info : Advanced Video Codec
Format profile : [email protected]
Format settings : CABAC / 12 Ref Frames
Format settings, CABAC : Yes
Format settings, Reference : 12 frames
Codec ID : V_MPEG4/ISO/AVC
Duration : 1 h 54 min
Bit rate : 5 983 kb/s
Width : 1 280 pixels
Height : 534 pixels
Display aspect ratio : 2.40:1
Frame rate mode : Constant
Frame rate : 23.976 (24000/1001) FPS
Color space : YUV
Chroma subsampling : 4:2:0
Bit depth : 8 bits
Scan type : Progressive
Bits/(Pixel*Frame) : 0.365
Stream size : 4.79 GiB (75%)
Title : -=DoMiNo=-
Writing library : x264 core 164 r3191 -DoMiNo
Encoding settings : cabac=1 / ref=12 / deblock=1:-3:-2 / analyse=0x3:0x133 / me=umh / subme=10 / psy=1 / psy_rd=1.05:0.03 / mixed_ref=1 / me_range=32 / chroma_me=1 / trellis=2 / 8x8dct=1 / cqm=0 / deadzone=21,11 / fast_pskip=0 / chroma_qp_offset=-3 / threads=17 / lookahead_threads=4 / sliced_threads=0 / nr=0 / decimate=1 / interlaced=0 / bluray_compat=0 / constrained_intra=0 / bframes=10 / b_pyramid=2 / b_adapt=2 / b_bias=0 / direct=3 / weightb=1 / open_gop=0 / weightp=2 / keyint=240 / keyint_min=23 / scenecut=40 / intra_refresh=0 / rc_lookahead=60 / rc=crf / mbtree=0 / crf=16.8 / qcomp=0.60 / qpmin=0 / qpmax=69 / qpstep=4 / vbv_maxrate=50000 / vbv_bufsize=62500 / crf_max=0.0 / nal_hrd=none / filler=0 / ip_ratio=1.40 / pb_ratio=1.30 / aq=2:0.80
Language : English
Default : Yes
Forced : No

Audio #1
ID : 2
Format : AC-3
Format/Info : Audio Coding 3
Commercial name : Dolby Digital
Codec ID : A_AC3
Duration : 1 h 54 min
Bit rate mode : Constant
Bit rate : 384 kb/s
Channel(s) : 6 channels
Channel layout : L R C LFE Ls Rs
Sampling rate : 48.0 kHz
Frame rate : 31.250 FPS (1536 SPF)
Compression mode : Lossy
Stream size : 315 MiB (5%)
Title : DUB - Bravo Records Georgia
Language : Russian
Service kind : Complete Main
Default : Yes
Forced : No
Dialog Normalization : -26 dB
compr : -0.28 dB
cmixlev : -3.0 dB
surmixlev : -3 dB
dmixmod : Lo/Ro
ltrtcmixlev : -3.0 dB
ltrtsurmixlev : -3.0 dB
lorocmixlev : -3.0 dB
lorosurmixlev : -3.0 dB
dialnorm_Average : -26 dB
dialnorm_Minimum : -26 dB
dialnorm_Maximum : -26 dB

Audio #2
ID : 3
Format : E-AC-3
Format/Info : Enhanced AC-3
Commercial name : Dolby Digital Plus
Codec ID : A_EAC3
Duration : 1 h 54 min
Bit rate mode : Constant
Bit rate : 384 kb/s
Channel(s) : 6 channels
Channel layout : L R C LFE Ls Rs
Sampling rate : 48.0 kHz
Frame rate : 31.250 FPS (1536 SPF)
Compression mode : Lossy
Stream size : 315 MiB (5%)
Title : DUB - Bravo Records Georgia
Language : Russian
Service kind : Complete Main
Default : No
Forced : No
Dialog Normalization : -13 dB
compr : 0.53 dB
dialnorm_Average : -13 dB
dialnorm_Minimum : -13 dB
dialnorm_Maximum : -13 dB

Audio #3
ID : 4
Format : AC-3
Format/Info : Audio Coding 3
Commercial name : Dolby Digital
Codec ID : A_AC3
Duration : 1 h 54 min
Bit rate mode : Constant
Bit rate : 192 kb/s
Channel(s) : 2 channels
Channel layout : L R
Sampling rate : 48.0 kHz
Frame rate : 31.250 FPS (1536 SPF)
Compression mode : Lossy
Stream size : 157 MiB (2%)
Title : Dub - Red Head Sound
Language : Russian
Service kind : Complete Main
Default : No
Forced : No
Dialog Normalization : -31 dB
compr : -0.28 dB
dsurmod : Not Dolby Surround encoded
ltrtcmixlev : 3.0 dB
ltrtsurmixlev : 3.0 dB
lorocmixlev : 3.0 dB
lorosurmixlev : 3.0 dB
dialnorm_Average : -31 dB
dialnorm_Minimum : -31 dB
dialnorm_Maximum : -31 dB

Audio #4
ID : 5
Format : AC-3
Format/Info : Audio Coding 3
Commercial name : Dolby Digital
Codec ID : A_AC3
Duration : 1 h 54 min
Bit rate mode : Constant
Bit rate : 384 kb/s
Channel(s) : 6 channels
Channel layout : L R C LFE Ls Rs
Sampling rate : 48.0 kHz
Frame rate : 31.250 FPS (1536 SPF)
Compression mode : Lossy
Stream size : 315 MiB (5%)
Title : MVO - Jaskier
Language : Russian
Service kind : Complete Main
Default : No
Forced : No
Dialog Normalization : -31 dB
cmixlev : -4.5 dB
surmixlev : -6 dB
dialnorm_Average : -31 dB
dialnorm_Minimum : -31 dB
dialnorm_Maximum : -31 dB

Audio #5
ID : 6
Format : AC-3
Format/Info : Audio Coding 3
Commercial name : Dolby Digital
Codec ID : A_AC3
Duration : 1 h 54 min
Bit rate mode : Constant
Bit rate : 640 kb/s
Channel(s) : 6 channels
Channel layout : L R C LFE Ls Rs
Sampling rate : 48.0 kHz
Frame rate : 31.250 FPS (1536 SPF)
Compression mode : Lossy
Stream size : 525 MiB (8%)
Title : Original
Language : English
Service kind : Complete Main
Default : No
Forced : No
Dialog Normalization : -31 dB
cmixlev : -4.5 dB
surmixlev : -6 dB
dialnorm_Average : -31 dB
dialnorm_Minimum : -31 dB
dialnorm_Maximum : -31 dB

Text #1
ID : 7
Format : UTF-8
Codec ID : S_TEXT/UTF8
Codec ID/Info : UTF-8 Plain Text
Duration : 1 h 43 min
Bit rate : 3 b/s
Frame rate : 0.011 FPS
Count of elements : 67
Stream size : 2.85 KiB (0%)
Title : Forced
Language : Russian
Default : No
Forced : No

Text #2
ID : 8
Format : UTF-8
Codec ID : S_TEXT/UTF8
Codec ID/Info : UTF-8 Plain Text
Duration : 1 h 53 min
Bit rate : 51 b/s
Frame rate : 0.121 FPS
Count of elements : 825
Stream size : 42.6 KiB (0%)
Title : Full
Language : Russian
Default : No
Forced : No

Text #3
ID : 9
Format : UTF-8
Codec ID : S_TEXT/UTF8
Codec ID/Info : UTF-8 Plain Text
Duration : 1 h 33 min
Bit rate : 1 b/s
Frame rate : 0.010 FPS
Count of elements : 56
Stream size : 1.28 KiB (0%)
Title : Forced
Language : English
Default : No
Forced : No

Text #4
ID : 10
Format : UTF-8
Codec ID : S_TEXT/UTF8
Codec ID/Info : UTF-8 Plain Text
Duration : 1 h 45 min
Bit rate : 38 b/s
Frame rate : 0.151 FPS
Count of elements : 956
Stream size : 30.1 KiB (0%)
Title : Full
Language : English
Default : No
Forced : No

Text #5
ID : 11
Format : UTF-8
Codec ID : S_TEXT/UTF8
Codec ID/Info : UTF-8 Plain Text
Duration : 1 h 54 min
Bit rate : 53 b/s
Frame rate : 0.241 FPS
Count of elements : 1654
Stream size : 44.4 KiB (0%)
Title : Full SDH
Language : English
Default : No
Forced : No

Menu
00:00:00.000 : en:Chapter 01
00:09:36.367 : en:Chapter 02
00:18:34.863 : en:Chapter 03
00:30:42.966 : en:Chapter 04
00:38:47.491 : en:Chapter 05
00:49:01.939 : en:Chapter 06
01:00:24.037 : en:Chapter 07
01:10:13.834 : en:Chapter 08
01:19:26.887 : en:Chapter 09
01:28:07.699 : en:Chapter 10
01:38:40.539 : en:Chapter 11
01:46:38.725 : en:Chapter 12

Другие фильмы
Комментарии:

...
alexei5881 7 июня 2024 18:52
0

видимо не за горами в максимальном качестве , жду спасибо техника тоже ждет, вместе с соседями )))) жалко мне их будет )

...
Robot 13 мая 2024 16:53
+1

rmzshka,

Поменяли.

...
rmzshka 13 мая 2024 16:21
0

А можно такой звук в 4к HDR релиз и желательно без рассинхрона?

Информация
Посетители, находящиеся в группе Гости, не могут оставлять комментарии к данной публикации.
Самый популярный релиз недели
Донаты
Мы в соц. сетях / RSS

Лучшие релизы месяца
Лучшие SD недели
Лучшие 720p недели
Лучшие 1080p недели
Лучшие 4K недели
Вы недавно смотрели
Реклама
Последние комментарии
...

Bonzo

14 июня 2024 14:52

...

rmzshka

13 июня 2024 17:48

...

rmzshka

13 июня 2024 12:24

...

LisNick

13 июня 2024 08:45

...

SkySpirit

8 июня 2024 19:54

Реклама