+22

Годзилла: Минус один / Gojira -1.0 / Godzilla: Minus One (2023) BDRip 720p от DoMiNo & селезень | P, P2, A | TVShows, LostFilm, GoLTFilm, Flarrow Films, ViruseProject, Яроцкий

Информация о фильме
Название: Годзилла: Минус один
Оригинальное название: Gojira -1.0 / Godzilla: Minus One
Год выпуска: 2023
Жанр: Фантастика, боевик, драма
Режиссер: Такаси Ямадзаки / Takashi Yamazaki
В ролях: Минами Хамабэ, Рюноскэ Камики, Сакура Андо, Кураносукэ Сасаки, Мунэтака Аоки, Юки Ямада, Хидэтака Ёсиока, Майкл Ариас, Юя Эндо, Кисукэ Иида

О фильме:
В последние дни Второй мировой камикадзе Коити Сикисима посадил самолёт на острове Одо, где располагалась ремонтная база императорской армии Японии. В тот же вечер на них напал невесть откуда взявшийся огромный ящер Годзилла — именно так называли его местные.

Коити возвращается в разрушенный бомбардировками Токио (родители погибли, от дома остались одни обломки) и пытается жить дальше. К нему прибивается тоже потерявшая семью девушка с младенцем, которого она спасла во время воздушного налёта. Время идёт, жизнь налаживается, Коити работает сборщиком мин в Токийском заливе, и однажды их хлипкий деревянный катер сталкивается с Годзиллой, который после ядерных испытаний на атолле Бикини стал ещё больше и ещё свирепее.

Выпущено: Япония / Robot Communications, Toho Company, Toho Studios
Продолжительность: 02:04:38
Перевод 1: Профессиональный (многоголосый, закадровый) | TVShows
Перевод 2: Профессиональный (многоголосый, закадровый) | LostFilm
Перевод 3: Профессиональный (многоголосый, закадровый) | GoLTFilm
Перевод 4: Профессиональный (многоголосый, закадровый) | Flarrow Films
Перевод 5: Профессиональный (двухголосый, закадровый) | ViruseProject
Перевод 6: Авторский (одноголосый, закадровый) | М. Яроцкий
Субтитры: Русские (Forced, Full (от rusubmaker)), английские, японские

Файл
Формат: Matroska
Качество: BDRip 720p [Исх.GODZILLA_MINUS_ONE_BD-ANKO]
Видео: 1280x536 at 23.976 fps, [email protected], ~3840 kbps
Аудио 1: AC3, 6 ch, ~640 kbps - | Русский | Годзилла: Минус один / Gojira -1.0 / Godzilla: Minus One (2023) BDRip 720p от DoMiNo & селезень | P, P2, A | TVShows, LostFilm, GoLTFilm, Flarrow Films, ViruseProject, Яроцкий | TVShows
Аудио 2: AC3, 6 ch, ~640 kbps - | Русский | | LostFilm
Аудио 3: AC3, 6 ch, ~640 kbps - | Русский | | GoLTFilm
Аудио 4: AC3, 2 ch, ~192 kbps - | Русский | | Flarrow Films
Аудио 5: AC3, 6 ch, ~640 kbps - | Русский | | ViruseProject
Аудио 6: AC3, 6 ch, ~640 kbps - | Русский | | М. Яроцкий
Аудио 7: AC3, 6 ch, ~640 kbps - | Японский | Original
Формат субтитров: softsub (SRT)

Авторизуйтесь для получения доступа к скачиванию

Нет аккаунта? Регистрация открыта и займёт меньше минуты

Вход Регистрация

x264 [info]: frame I: 1191 Avg QP: 14.91 size: 78436
x264 [info]: frame P: 37346 Avg QP: 15.09 size: 41695
x264 [info]: frame B: 140760 Avg QP: 17.31 size: 13772

General
Unique ID: 70359751492714558304610770519881058575 (0×34EECB940F066E80C343BE97F64A890F)
Complete name: T: Godzilla.Minus.One.2023.BDRip.720p.x264.seleZen.mkv
Format: Matroska
Format version: Version 4
File size: 6.86 GiB
Duration: 2 h 4 min
Overall bit rate: 7 876 kb/s
Frame rate: 23.976 FPS
Movie name: Godzilla.Minus.One.2023.BDRip.720p.x264.seleZen
Encoded date: 26.05.2024 07:28:17 UTC
Writing application: mkvmerge v84.0 ('Sleeper') 64-bit
Writing library: libebml v1.4.5 + libmatroska v1.7.1
Cover: Yes
Attachments: cover.jpg / small_cover.jpg

Video
ID: 1
Format: AVC
Format/Info: Advanced Video Codec
Format profile: [email protected]
Format settings: CABAC / 12 Ref Frames
Format settings, CABAC: Yes
Format settings, Reference: 12 frames
Codec ID: V_MPEG4/ISO/AVC
Duration: 2 h 4 min
Bit rate: 3 840 kb/s
Width: 1 280 pixels
Height: 536 pixels
Display aspect ratio: 2.39:1
Frame rate mode: Constant
Frame rate: 23.976 (24000/1001) FPS
Color space: YUV
Chroma subsampling: 4:2:0
Bit depth: 8 bits
Scan type: Progressive
Bits/(Pixel*Frame): 0.233
Stream size: 3.34 GiB (49%)
Title: -=DoMiNo=-
Writing library: x264 core 164 r3190 -DoMiNo
Encoding settings: cabac=1 / ref=12 / deblock=1:-2:-2 / analyse=0×3:0×133 / me=umh / subme=10 / psy=1 / psy_rd=1.00:0.00 / mixed_ref=1 / me_range=32 / chroma_me=1 / trellis=2 / 8×8dct=1 / cqm=0 / deadzone=21,11 / fast_pskip=0 / chroma_qp_offset=-2 / threads=17 / lookahead_threads=4 / sliced_threads=0 / nr=0 / decimate=1 / interlaced=0 / bluray_compat=0 / constrained_intra=0 / bframes=12 / b_pyramid=2 / b_adapt=2 / b_bias=0 / direct=3 / weightb=1 / open_gop=0 / weightp=2 / keyint=240 / keyint_min=23 / scenecut=40 / intra_refresh=0 / rc_lookahead=60 / rc=crf / mbtree=0 / crf=16.0 / qcomp=0.60 / qpmin=0 / qpmax=69 / qpstep=4 / vbv_maxrate=50000 / vbv_bufsize=62500 / crf_max=0.0 / nal_hrd=none / filler=0 / ip_ratio=1.20 / pb_ratio=1.30 / aq=3:0.80
Language: Japanese
Default: Yes
Forced: No
Color range: Limited
Color primaries: BT.709
Transfer characteristics: BT.709
Matrix coefficients: BT.709

Audio #1
ID: 2
Format: AC-3
Format/Info: Audio Coding 3
Commercial name: Dolby Digital
Codec ID: A_AC3
Duration: 2 h 4 min
Bit rate mode: Constant
Bit rate: 640 kb/s
Channel (s): 6 channels
Channel layout: L R C LFE Ls Rs
Sampling rate: 48.0 kHz
Frame rate: 31.250 FPS (1536 SPF)
Compression mode: Lossy
Stream size: 571 MiB (8%)
Title: MVO — TVShows
Language: Russian
Service kind: Complete Main
Default: Yes
Forced: No
Dialog Normalization: -24 dB
compr: -0.28 dB
cmixlev: -3.0 dB
surmixlev: -3 dB
dmixmod: Lo/Ro
ltrtcmixlev: -3.0 dB
ltrtsurmixlev: -3.0 dB
lorocmixlev: -3.0 dB
lorosurmixlev: -3.0 dB
dialnorm_Average: -24 dB
dialnorm_Minimum: -24 dB
dialnorm_Maximum: -24 dB

Audio #2
ID: 3
Format: AC-3
Format/Info: Audio Coding 3
Commercial name: Dolby Digital
Codec ID: A_AC3
Duration: 2 h 4 min
Bit rate mode: Constant
Bit rate: 640 kb/s
Channel (s): 6 channels
Channel layout: L R C LFE Ls Rs
Sampling rate: 48.0 kHz
Frame rate: 31.250 FPS (1536 SPF)
Compression mode: Lossy
Stream size: 571 MiB (8%)
Title: MVO — LostFilm
Language: Russian
Service kind: Complete Main
Default: No
Forced: No
Dialog Normalization: -23 dB
compr: -0.28 dB
cmixlev: -3.0 dB
surmixlev: -3 dB
dmixmod: Lo/Ro
ltrtcmixlev: -3.0 dB
ltrtsurmixlev: -3.0 dB
lorocmixlev: -3.0 dB
lorosurmixlev: -3.0 dB
dialnorm_Average: -23 dB
dialnorm_Minimum: -23 dB
dialnorm_Maximum: -23 dB

Audio #3
ID: 4
Format: AC-3
Format/Info: Audio Coding 3
Commercial name: Dolby Digital
Codec ID: A_AC3
Duration: 2 h 4 min
Bit rate mode: Constant
Bit rate: 640 kb/s
Channel (s): 6 channels
Channel layout: L R C LFE Ls Rs
Sampling rate: 48.0 kHz
Frame rate: 31.250 FPS (1536 SPF)
Compression mode: Lossy
Stream size: 571 MiB (8%)
Title: MVO — GoLTFilm
Language: Russian
Service kind: Complete Main
Default: No
Forced: No
Dialog Normalization: -21 dB
compr: -0.28 dB
cmixlev: -3.0 dB
surmixlev: -3 dB
dmixmod: Lo/Ro
ltrtcmixlev: -3.0 dB
ltrtsurmixlev: -3.0 dB
lorocmixlev: -3.0 dB
lorosurmixlev: -3.0 dB
dialnorm_Average: -21 dB
dialnorm_Minimum: -21 dB
dialnorm_Maximum: -21 dB

Audio #4
ID: 5
Format: AC-3
Format/Info: Audio Coding 3
Commercial name: Dolby Digital
Codec ID: A_AC3
Duration: 2 h 4 min
Bit rate mode: Constant
Bit rate: 192 kb/s
Channel (s): 2 channels
Channel layout: L R
Sampling rate: 48.0 kHz
Frame rate: 31.250 FPS (1536 SPF)
Compression mode: Lossy
Stream size: 171 MiB (2%)
Title: MVO — Flarrow Films
Language: Russian
Service kind: Complete Main
Default: No
Forced: No
Dialog Normalization: -22 dB
compr: -0.28 dB
ltrtcmixlev: -3.0 dB
ltrtsurmixlev: -3.0 dB
lorocmixlev: -3.0 dB
lorosurmixlev: -3.0 dB
dialnorm_Average: -22 dB
dialnorm_Minimum: -22 dB
dialnorm_Maximum: -22 dB

Audio #5
ID: 6
Format: AC-3
Format/Info: Audio Coding 3
Commercial name: Dolby Digital
Codec ID: A_AC3
Duration: 2 h 4 min
Bit rate mode: Constant
Bit rate: 640 kb/s
Channel (s): 6 channels
Channel layout: L R C LFE Ls Rs
Sampling rate: 48.0 kHz
Frame rate: 31.250 FPS (1536 SPF)
Compression mode: Lossy
Stream size: 571 MiB (8%)
Title: DVO — ViruseProject
Language: Russian
Service kind: Complete Main
Default: No
Forced: No
Dialog Normalization: -22 dB
compr: -0.28 dB
cmixlev: -3.0 dB
surmixlev: -3 dB
dmixmod: Lo/Ro
ltrtcmixlev: -3.0 dB
ltrtsurmixlev: -3.0 dB
lorocmixlev: -3.0 dB
lorosurmixlev: -3.0 dB
dialnorm_Average: -22 dB
dialnorm_Minimum: -22 dB
dialnorm_Maximum: -22 dB

Audio #6
ID: 7
Format: AC-3
Format/Info: Audio Coding 3
Commercial name: Dolby Digital
Codec ID: A_AC3
Duration: 2 h 4 min
Bit rate mode: Constant
Bit rate: 640 kb/s
Channel (s): 6 channels
Channel layout: L R C LFE Ls Rs
Sampling rate: 48.0 kHz
Frame rate: 31.250 FPS (1536 SPF)
Compression mode: Lossy
Stream size: 571 MiB (8%)
Title: AVO — М. Яроцкий
Language: Russian
Service kind: Complete Main
Default: No
Forced: No
Dialog Normalization: -20 dB
compr: -0.28 dB
cmixlev: -3.0 dB
surmixlev: -3 dB
dmixmod: Lo/Ro
ltrtcmixlev: -3.0 dB
ltrtsurmixlev: -3.0 dB
lorocmixlev: -3.0 dB
lorosurmixlev: -3.0 dB
dialnorm_Average: -20 dB
dialnorm_Minimum: -20 dB
dialnorm_Maximum: -20 dB

Audio #7
ID: 8
Format: AC-3
Format/Info: Audio Coding 3
Commercial name: Dolby Digital
Codec ID: A_AC3
Duration: 2 h 4 min
Bit rate mode: Constant
Bit rate: 640 kb/s
Channel (s): 6 channels
Channel layout: L R C LFE Ls Rs
Sampling rate: 48.0 kHz
Frame rate: 31.250 FPS (1536 SPF)
Compression mode: Lossy
Stream size: 571 MiB (8%)
Title: Original
Language: Japanese
Service kind: Complete Main
Default: No
Forced: No
Dialog Normalization: -31 dB
cmixlev: -4.5 dB
surmixlev: -6 dB
dialnorm_Average: -31 dB
dialnorm_Minimum: -31 dB
dialnorm_Maximum: -31 dB

Text #1
ID: 9
Format: UTF-8
Codec ID: S_TEXT/UTF8
Codec ID/Info: UTF-8 Plain Text
Duration: 1 h 58 min
Bit rate: 1 b/s
Frame rate: 0.003 FPS
Count of elements: 18
Stream size: 902 Bytes (0%)
Title: Forced
Language: Russian
Default: No
Forced: No

Text #2
ID: 10
Format: UTF-8
Codec ID: S_TEXT/UTF8
Codec ID/Info: UTF-8 Plain Text
Duration: 1 h 58 min
Bit rate: 66 b/s
Frame rate: 0.160 FPS
Count of elements: 1131
Stream size: 57.3 KiB (0%)
Title: Full (rusubmaker)
Language: Russian
Default: No
Forced: No

Text #3
ID: 11
Format: UTF-8
Codec ID: S_TEXT/UTF8
Codec ID/Info: UTF-8 Plain Text
Duration: 1 h 56 min
Bit rate: 35 b/s
Frame rate: 0.171 FPS
Count of elements: 1196
Stream size: 30.5 KiB (0%)
Language: English
Default: No
Forced: No

Text #4
ID: 12
Format: UTF-8
Codec ID: S_TEXT/UTF8
Codec ID/Info: UTF-8 Plain Text
Duration: 2 h 3 min
Bit rate: 379 b/s
Frame rate: 0.901 FPS
Count of elements: 6668
Stream size: 343 KiB (0%)
Language: Japanese
Default: No
Forced: No

Menu
00:00:00.000: en: 01: Godzilla
00:13:21.509: en: 02: Akiko
00:20:07.665: en: 03: Dangerous Work
00:30:31.580: en: 04: Buy Time
00:44:53.566: en: 05: The Person Who Ran Away
00:52:28.020: en: 06: Landing in Ginza
01:05:42.272: en: 07: Operation Wadatsumi
01:14:52.279: en: 08: My War
01:17:59.717: en: 09: Phantom Fighter
01:25:42.012: en: 10: For the Future
01:36:21.025: en: 11: Start of Operation
01:58:58.798: en: 12: End Credits

Другие фильмы
У данной публикации пока нет комментариев.
Будь первым, оставь своё мнение в комментариях!
Информация
Посетители, находящиеся в группе Гости, не могут оставлять комментарии к данной публикации.
Самый популярный релиз недели
Донаты
Мы в соц. сетях / RSS

Лучшие релизы месяца
Лучшие SD недели
Лучшие 720p недели
Лучшие 1080p недели
Лучшие 4K недели
Вы недавно смотрели
Реклама
Последние комментарии
...

Bonzo

14 июня 2024 14:52

...

rmzshka

13 июня 2024 17:48

...

rmzshka

13 июня 2024 12:24

...

LisNick

13 июня 2024 08:45

...

SkySpirit

8 июня 2024 19:54

Реклама