+10

Дюна: Часть вторая / Dune: Part Two (2024) WEB-DLRip 720p от DoMiNo & селезень | D | Bravo Records Georgia / Movie Dubbing, Red Head Sound, HDRezka Studio

Информация о фильме
Название: Дюна: Часть вторая
Оригинальное название: Dune: Part Two
Год выпуска: 2024
Жанр: Фантастика, боевик, драма, приключения
Выпущено: США, Канада, Legendary Entertainment, Warner Bros. Entertainment, Villeneuve Films
Режиссер: Дени Вильнёв
В ролях: Тимоти Шаламе, Зендея, Ребекка Фергюсон, Хавьер Бардем, Джош Бролин, Остин Батлер, Флоренс Пью, Дэйв Батиста, Кристофер Уокен, Леа Сейду

Описание:
Примкнув к фременам, Пол Атрейдес, принявший имя Муад’Диб, должен доказать жителям пустыни, что теперь он действительно один из них. Несмотря на то, что он завоевал доверие и любовь Чани, кто-то считает Пола шпионом, другие же видят в нем мессию. Герою предстоит пройти сложнейшие испытания и возглавить противостояние с домом Харконненов и императором Шаддамом IV, виновными в смерти его отца. Молодой человек должен предотвратить ужасное будущее, которое грозит вселенной на пороге священной войны. «Дюна: Часть вторая» (2024) — продолжение эпического полотна Дени Вильнева по роману Фрэнка Герберта. Главные роли в фильме «Дюна 2» исполнили Тимоти Шаламе, Зендая, Ребекка Фергюсон, Стеллан Скарсгард, Леа Сейду, Флоренс Пью и Остин Батлер.

Выпущено: США, Канада, Legendary Entertainment, Warner Bros. Entertainment, Villeneuve Films
Продолжительность: 02:46:56
Перевод 1: Дублированный (официальный) - Bravo Records Georgia / Movie Dubbing
Роли дублировали: Даниил Постников, Ярослава Николаева, Катя Хейфец, Серго Кения, Андрей Бибиков, Григорий Лайков, Влада Анисимова, Владимир Новосардов, Дмитрий Бужинский, Анна Андреева, Олег Мчедлишвили, Алёна Ивченко, Валентина Варлашина, Владимир Малюгин, Игорь Попов, Диана Нерсесова, София Габелия, Георгий Вардиашвили, Савва Самодуров, Алексей Ерохин, Дмитрий Тихонов, Изабелла Богданова
Перевод 2: Дублированный (неофициальный) - Red Head Sound
Перевод 3: Дублированный (неофициальный) - HDrezka Studio
Субтитры: Русские (Forced, Full x3 -Official / Cool Story Blog / by stirlooo, Dark_Alice), Английские (Forced, Full, SDH)

Файл
Формат: Matroska
Качество: WEB-DLRip 720p [исх.Dune.Part.Two.2024.2160p.AMZN.WEB-DL.DDP5.1.Atmos.H.265-FLUX]
Видео: 1280x534 at 23.976 fps, [email protected], ~3335 kbps
Аудио 1: AC3, 6 ch, ~384 kbps - | Русский | Дюна: Часть вторая / Dune: Part Two (2024) WEB-DLRip 720p от DoMiNo & селезень | D | Bravo Records Georgia / Movie Dubbing, Red Head Sound, HDRezka Studio | Bravo Records Georgia / Movie Dubbing
Аудио 2: AC3, 6 ch, ~640 kbps - | Русский | | Red Head Sound
Аудио 3: AC3, 2 ch, ~192 kbps - | Русский | | HDrezka Studio
Аудио 4: AC3, 6 ch, ~448 kbps - | Английский | | Original
Формат субтитров: softsub (SRT)

Авторизуйтесь для получения доступа к скачиванию

Нет аккаунта? Регистрация открыта и займёт меньше минуты

Вход Регистрация

x264 [info]: frame I: 43 Avg QP: 13.03 size: 47531
x264 [info]: frame P: 537 Avg QP: 15.64 size: 20671
x264 [info]: frame B: 1969 Avg QP: 17.37 size: 5774

General
Unique ID: 137884683385986888036416247516766532613 (0×67BB9FC26E84E980E922AB70C691F405)
Complete name: T: Dune.Part.Two.2024.3xDUB.WEB-DLRip.720p.x264.seleZen.mkv
Format: Matroska
Format version: Version 4
File size: 5.82 GiB
Duration: 2 h 46 min
Overall bit rate: 4 991 kb/s
Frame rate: 23.976 FPS
Movie name: Dune.Part.Two.2024.3xDUB.WEB-DLRip.720p.x264.seleZen
Encoded date: 20.04.2024 13:18:58 UTC
Writing application: mkvmerge v83.0 ('Circle Of Friends') 64-bit
Writing library: libebml v1.4.5 + libmatroska v1.7.1
Cover: Yes
Attachments: cover.jpg / small_cover.jpg

Video
ID: 1
Format: AVC
Format/Info: Advanced Video Codec
Format profile: [email protected]
Format settings: CABAC / 12 Ref Frames
Format settings, CABAC: Yes
Format settings, Reference: 12 frames
Codec ID: V_MPEG4/ISO/AVC
Duration: 2 h 46 min
Bit rate: 3 335 kb/s
Width: 1 280 pixels
Height: 534 pixels
Display aspect ratio: 2.40:1
Frame rate mode: Constant
Frame rate: 23.976 (24000/1001) FPS
Color space: YUV
Chroma subsampling: 4:2:0
Bit depth: 8 bits
Scan type: Progressive
Bits/(Pixel*Frame): 0.204
Stream size: 3.89 GiB (67%)
Title: -=DoMiNo=-
Writing library: x264 core 164 r3190 -DoMiNo
Encoding settings: cabac=1 / ref=12 / deblock=1:-2:-2 / analyse=0×3:0×133 / me=umh / subme=10 / psy=1 / psy_rd=1.05:0.15 / mixed_ref=1 / me_range=32 / chroma_me=1 / trellis=2 / 8×8dct=1 / cqm=0 / deadzone=21,11 / fast_pskip=0 / chroma_qp_offset=-3 / threads=17 / lookahead_threads=2 / sliced_threads=0 / nr=0 / decimate=0 / interlaced=0 / bluray_compat=0 / constrained_intra=0 / bframes=9 / b_pyramid=2 / b_adapt=2 / b_bias=0 / direct=1 / weightb=1 / open_gop=0 / weightp=2 / keyint=240 / keyint_min=23 / scenecut=40 / intra_refresh=0 / rc_lookahead=60 / rc=crf / mbtree=0 / crf=18.6 / qcomp=0.60 / qpmin=0 / qpmax=69 / qpstep=4 / vbv_maxrate=50000 / vbv_bufsize=62500 / crf_max=0.0 / nal_hrd=none / filler=0 / ip_ratio=1.36 / pb_ratio=1.30 / aq=3:1.10
Language: English
Default: Yes
Forced: No
Color range: Limited
Color primaries: BT.709
Transfer characteristics: BT.709
Matrix coefficients: BT.709

Audio #1
ID: 2
Format: AC-3
Format/Info: Audio Coding 3
Commercial name: Dolby Digital
Codec ID: A_AC3
Duration: 2 h 45 min
Bit rate mode: Constant
Bit rate: 384 kb/s
Channel (s): 6 channels
Channel layout: L R C LFE Ls Rs
Sampling rate: 48.0 kHz
Frame rate: 31.250 FPS (1536 SPF)
Compression mode: Lossy
Stream size: 455 MiB (8%)
Title: Dub_Bravo Records Georgia / Movie Dubbing
Language: Russian
Service kind: Complete Main
Default: Yes
Forced: No
AC3_metadata cmixlev: -3.0 dB
surmixlev: -6 dB

Audio #2
ID: 3
Format: AC-3
Format/Info: Audio Coding 3
Commercial name: Dolby Digital
Codec ID: A_AC3
Duration: 2 h 45 min
Bit rate mode: Constant
Bit rate: 640 kb/s
Channel (s): 6 channels
Channel layout: L R C LFE Ls Rs
Sampling rate: 48.0 kHz
Frame rate: 31.250 FPS (1536 SPF)
Compression mode: Lossy
Stream size: 759 MiB (13%)
Title: Дубляж (Red Head Sound)
Language: Russian
Service kind: Complete Main
Default: No
Forced: No
AC3_metadata cmixlev: -3.0 dB
surmixlev: -3 dB

Audio #3
ID: 4
Format: AC-3
Format/Info: Audio Coding 3
Commercial name: Dolby Digital
Codec ID: A_AC3
Duration: 2 h 45 min
Bit rate mode: Constant
Bit rate: 192 kb/s
Channel (s): 2 channels
Channel layout: L R
Sampling rate: 48.0 kHz
Frame rate: 31.250 FPS (1536 SPF)
Compression mode: Lossy
Stream size: 228 MiB (4%)
Title: DUB -HDRezka Studio
Language: Russian
Service kind: Complete Main
Default: No
Forced: No

Audio #4
ID: 5
Format: AC-3
Format/Info: Audio Coding 3
Commercial name: Dolby Digital
Codec ID: A_AC3
Duration: 2 h 45 min
Bit rate mode: Constant
Bit rate: 448 kb/s
Channel (s): 6 channels
Channel layout: L R C LFE Ls Rs
Sampling rate: 48.0 kHz
Frame rate: 31.250 FPS (1536 SPF)
Compression mode: Lossy
Stream size: 531 MiB (9%)
Title: Original
Language: English
Service kind: Complete Main
Default: No
Forced: No
AC3_metadata cmixlev: -4.5 dB
surmixlev: -6 dB

Text #1
ID: 6
Format: UTF-8
Codec ID: S_TEXT/UTF8
Codec ID/Info: UTF-8 Plain Text
Duration: 2 h 39 min
Bit rate: 7 b/s
Frame rate: 0.022 FPS
Count of elements: 214
Stream size: 8.53 KiB (0%)
Title: Forced (Off.)
Language: Russian
Default: No
Forced: Yes

Text #2
ID: 7
Format: UTF-8
Codec ID: S_TEXT/UTF8
Codec ID/Info: UTF-8 Plain Text
Duration: 2 h 45 min
Bit rate: 46 b/s
Frame rate: 0.134 FPS
Count of elements: 1331
Stream size: 56.4 KiB (0%)
Title: Full (Off.)
Language: Russian
Default: No
Forced: No

Text #3
ID: 8
Format: UTF-8
Codec ID: S_TEXT/UTF8
Codec ID/Info: UTF-8 Plain Text
Duration: 2 h 36 min
Bit rate: 52 b/s
Frame rate: 0.135 FPS
Count of elements: 1273
Stream size: 60.5 KiB (0%)
Title: Full (Cool Story Blog / by stirlooo)
Language: Russian
Default: No
Forced: No

Text #4
ID: 9
Format: UTF-8
Codec ID: S_TEXT/UTF8
Codec ID/Info: UTF-8 Plain Text
Duration: 2 h 36 min
Bit rate: 48 b/s
Frame rate: 0.135 FPS
Count of elements: 1273
Stream size: 55.9 KiB (0%)
Title: Full (Dark_Alice)
Language: Russian
Default: No
Forced: No

Text #5
ID: 10
Format: UTF-8
Codec ID: S_TEXT/UTF8
Codec ID/Info: UTF-8 Plain Text
Duration: 2 h 21 min
Bit rate: 4 b/s
Frame rate: 0.023 FPS
Count of elements: 196
Stream size: 5.01 KiB (0%)
Title: Forced
Language: English
Default: No
Forced: No

Text #6
ID: 11
Format: UTF-8
Codec ID: S_TEXT/UTF8
Codec ID/Info: UTF-8 Plain Text
Duration: 2 h 36 min
Bit rate: 32 b/s
Frame rate: 0.137 FPS
Count of elements: 1285
Stream size: 36.8 KiB (0%)
Title: Full (with Freemen)
Language: English
Default: No
Forced: No

Text #7
ID: 12
Format: UTF-8
Codec ID: S_TEXT/UTF8
Codec ID/Info: UTF-8 Plain Text
Duration: 2 h 35 min
Bit rate: 27 b/s
Frame rate: 0.116 FPS
Count of elements: 1081
Stream size: 31.6 KiB (0%)
Title: Full
Language: English
Default: No
Forced: No

Text #8
ID: 13
Format: UTF-8
Codec ID: S_TEXT/UTF8
Codec ID/Info: UTF-8 Plain Text
Duration: 2 h 37 min
Bit rate: 41 b/s
Frame rate: 0.183 FPS
Count of elements: 1729
Stream size: 48.1 KiB (0%)
Title: SDH
Language: English
Default: No
Forced: No

Menu
00:00:00.000: en: Chapter 01
00:09:15.221: en: Chapter 02
00:21:29.914: en: Chapter 03
00:29:31.021: en: Chapter 04
00:40:08.908: en: Chapter 05
00:50:40.915: en: Chapter 06
01:00:34.134: en: Chapter 07
01:09:54.527: en: Chapter 08
01:19:40.488: en: Chapter 09
01:30:39.939: en: Chapter 10
01:39:06.071: en: Chapter 11
01:49:35.867: en: Chapter 12
01:59:40.430: en: Chapter 13
02:10:24.616: en: Chapter 14
02:18:50.288: en: Chapter 15
02:24:19.242: en: Chapter 16
02:37:45.799: en: Chapter 17

Другие фильмы
У данной публикации пока нет комментариев.
Будь первым, оставь своё мнение в комментариях!
Информация
Посетители, находящиеся в группе Гости, не могут оставлять комментарии к данной публикации.
Самый популярный релиз недели
Донаты
Мы в соц. сетях / RSS

Лучшие релизы месяца
Лучшие SD недели
Лучшие 720p недели
Лучшие 1080p недели
Лучшие 4K недели
Вы недавно смотрели
Реклама
Последние комментарии
...

rmzshka

15 мая 2024 13:43

...

Andrey_Vladimirovich

13 мая 2024 18:12

...

Robot

13 мая 2024 16:53

...

rmzshka

13 мая 2024 16:21

...

supermehanik

13 мая 2024 02:03

Реклама