+5

Темная игра / Пила. Джокер / DarkGame (2024) WEB-DLRip 720p от DoMiNo & селезень | P2 | ViruseProject

Информация о фильме
Название: Темная игра / Пила. Джокер
Оригинальное название: DarkGame
Год выхода: 2024
Жанр: ужасы, триллер
Режиссер: Ховард Дж. Форд
В ролях: Эд Вествик, Эндрю П. Стивен, Наталья Цветкова, Лола Огуньеми, Рори Александр, Эндрю, Мицли Роуз, Энтони Офоэгбу, Наташа Скутка, Джо Урхарт и др.

О фильме:
Маньяк запускает в прямом эфире реалити-шоу, в котором собраны все самые жестокие игры на выживание. Похищенные им жертвы выполняют сложные задания, а цена проигрыша — смерть. Пока миллионы людей по всему миру наблюдают за этой смертельной игрой, талантливый и не терпящий поражений детектив Бен разгадывает головоломку, чтобы выйти на след преступника.

Страна: Великобритания
Продолжительность: 01:40:55
Перевод: Профессиональный (двухголосый, закадровый) | ViruseProject 18 +
Субтитры: Английские

Файл
Формат: Matroska
Качество: WEB-DLRip 720p
Видео: 1280x534 at 23.976 fps, [email protected], ~2986 kbps
Аудио: AC3, 6 ch, ~640 kbps - | Русский | Темная игра / Пила. Джокер / DarkGame (2024) WEB-DLRip 720p от DoMiNo & селезень | P2 | ViruseProject
Формат субтитров: softsub (SRT)

Авторизуйтесь для получения доступа к скачиванию

Нет аккаунта? Регистрация открыта и займёт меньше минуты

Вход Регистрация

General
Unique ID : 41366554697110833183235257832138348572 (0x1F1EE89C8C3C76935A458BBFE058181C)
Complete name : S:DarkGame.2024.WEB-DLRip.720p.x264.seleZen.mkv
Format : Matroska
Format version : Version 4
File size : 2.56 GiB
Duration : 1 h 40 min
Overall bit rate : 3 628 kb/s
Frame rate : 24.000 FPS
Movie name : DarkGame.2024.WEB-DLRip.720p.x264.seleZen
Encoded date : 2024-02-25 09:13:42 UTC
Writing application : mkvmerge v82.0 ('I'm The President') 64-bit
Writing library : libebml v1.4.5 + libmatroska v1.7.1
Cover : Yes
Attachments : cover.jpg / small_cover.jpg

Video
ID : 1
Format : AVC
Format/Info : Advanced Video Codec
Format profile : [email protected]
Format settings : CABAC / 5 Ref Frames
Format settings, CABAC : Yes
Format settings, Reference : 5 frames
Codec ID : V_MPEG4/ISO/AVC
Duration : 1 h 40 min
Bit rate : 2 986 kb/s
Width : 1 280 pixels
Height : 534 pixels
Display aspect ratio : 2.40:1
Frame rate mode : Constant
Frame rate : 24.000 FPS
Color space : YUV
Chroma subsampling : 4:2:0
Bit depth : 8 bits
Scan type : Progressive
Bits/(Pixel*Frame) : 0.182
Stream size : 2.11 GiB (82%)
Title : -=DoMiNo=-
Writing library : x264 core 164 r3179 -DoMiNo
Encoding settings : cabac=1 / ref=5 / deblock=1:-2:-1 / analyse=0x3:0x133 / me=umh / subme=10 / psy=1 / psy_rd=1.03:0.05 / mixed_ref=1 / me_range=32 / chroma_me=1 / trellis=2 / 8x8dct=1 / cqm=0 / deadzone=21,11 / fast_pskip=0 / chroma_qp_offset=-3 / threads=17 / lookahead_threads=4 / sliced_threads=0 / nr=0 / decimate=0 / interlaced=0 / bluray_compat=0 / constrained_intra=0 / bframes=10 / b_pyramid=2 / b_adapt=2 / b_bias=0 / direct=1 / weightb=1 / open_gop=0 / weightp=2 / keyint=250 / keyint_min=24 / scenecut=40 / intra_refresh=0 / rc_lookahead=60 / rc=crf / mbtree=0 / crf=19.5 / qcomp=0.60 / qpmin=0 / qpmax=69 / qpstep=4 / vbv_maxrate=50000 / vbv_bufsize=62500 / crf_max=0.0 / nal_hrd=none / filler=0 / ip_ratio=1.40 / pb_ratio=1.30 / aq=3:0.90
Language : English
Default : Yes
Forced : No
Color range : Limited
Color primaries : BT.709
Transfer characteristics : BT.709
Matrix coefficients : BT.709

Audio
ID : 2
Format : AC-3
Format/Info : Audio Coding 3
Commercial name : Dolby Digital
Codec ID : A_AC3
Duration : 1 h 40 min
Bit rate mode : Constant
Bit rate : 640 kb/s
Channel(s) : 6 channels
Channel layout : L R C LFE Ls Rs
Sampling rate : 48.0 kHz
Frame rate : 31.250 FPS (1536 SPF)
Compression mode : Lossy
Stream size : 462 MiB (18%)
Title : ViruseProject
Language : Russian
Service kind : Complete Main
Default : Yes
Forced : No

Text
ID : 3
Format : UTF-8
Codec ID : S_TEXT/UTF8
Codec ID/Info : UTF-8 Plain Text
Duration : 1 h 40 min
Bit rate : 63 b/s
Frame rate : 0.277 FPS
Count of elements : 1675
Stream size : 46.8 KiB (0%)
Language : English
Default : No
Forced : No

Menu
00:00:00.000 : en:Chapter 01
00:05:50.000 : en:Chapter 02
00:11:40.000 : en:Chapter 03
00:17:30.000 : en:Chapter 04
00:23:20.000 : en:Chapter 05
00:29:10.000 : en:Chapter 06
00:35:00.000 : en:Chapter 07
00:40:50.000 : en:Chapter 08
00:46:40.000 : en:Chapter 09
00:52:30.000 : en:Chapter 10
00:58:20.000 : en:Chapter 11
01:04:10.000 : en:Chapter 12
01:10:00.000 : en:Chapter 13
01:15:50.000 : en:Chapter 14
01:21:40.000 : en:Chapter 15
01:27:30.000 : en:Chapter 16
01:33:20.000 : en:Chapter 17
01:39:10.000 : en:Chapter 18

Другие фильмы
У данной публикации пока нет комментариев.
Будь первым, оставь своё мнение в комментариях!
Информация
Посетители, находящиеся в группе Гости, не могут оставлять комментарии к данной публикации.
Самый популярный релиз недели
Донаты
Мы в соц. сетях / RSS

Лучшие релизы месяца
Лучшие SD недели
Лучшие 720p недели
Лучшие 1080p недели
Лучшие 4K недели
Вы недавно смотрели
Реклама
Последние комментарии
...

ruslan6971

21 апреля 2024 19:59

...

Tony1984

20 апреля 2024 14:36

...

bolonka123

19 апреля 2024 10:05

...

Sergunka

17 апреля 2024 23:31

...

-=DoMiNo=-

17 апреля 2024 13:52

Реклама