+16

Аватар: Легенда об Аанге / Avatar: The Last Airbender [S01] (2024) WEB-DLRip-AVC от DoMiNo & селезень | Jaskier

Информация о фильме
Название: Аватар: Легенда об Аанге
Оригинальное название: Avatar: The Last Airbender
Год выхода: 2024
Жанр: фэнтези, боевик, драма, комедия, приключения
Режиссер: Майкл Гои, Розанна Лян, Джаббар Райсани
В ролях: Гордон Кормье, Даллас Джеймс Лью, Ян Оусли, Пол Сун-Хюнг Ли, Киавентио, Рюи Искандар, Лим Кай Сю, Кэйси Кэмп-Хоринек, Ивонн Чепмен, Мэттью Ян Кинг, Хиро Канагава, Джефф Юн, Алекс Ло, Дерек Лоу, Дориан Джордано, Саммер Теставич, Симон Леунг, Сэм Боб, Лео Ли Чианг, Хао Тинг, Сильвер Ким, Оливер Тру Сисон, Джейден Чжан, Гарлэнд Чанг, Линда Минард

О фильме:
«Аватар: Легенда об Аанге» — игровая адаптация Netflix одноименного культового анимационного сериала. Команда проекта тщательно работала над сохранением духа восточной культуры и традиций, которыми был вдохновлен мир оригинала, над постановкой боев и, конечно, сохранением особенностей, за которые поклонники любили анимационный сериал. Главную роль в проекте исполнил Гордон Кормье, образ Катары воплотила Киавентио, роль Зуко досталась Далласу Джеймсу Лью, а Сокки, воинственного брата Катары, — Йену Аусли. Это красочная и захватывающая дух история о мире, в котором властвуют четыре стихии, а люди способы покорять могущественные природные силы.

В возрасте 11 лет Аанг (Гордон Кормье), мальчик из племени воздушных кочевников, узнал, что он — Аватар, человек, способный покорить все четыре стихии и установить гармонию между народами. Однако всегда есть те, кто хочет главенствовать, и потому в мире назревает война, инициаторами которой выступает народ Огня. Аанг — единственный, кто способен устранить угрозу, будучи Аватаром, и спасти мир от уничтожения. Однако столь серьезная ответственность пугает юного мага, и он сбегает. Но в пути Аанга настигает шторм, и он замораживает себя в состоянии Аватара на долгую сотню лет, пока в мире главенствует воинственный народ Огня...

Страна: США
Студия: Avatar Studios, Netflix, Nickelodeon Productions
Продолжительность: ~00:55:00
Перевод: Профессиональный (многоголосый закадровый) Jaskier
Субтитры: Русские (Full), Английские (Full, SDH)

Файл
Формат: Matroska
Качество: WEB-DLRip-AVC
Видео: 1024x464 at 24.000 fps, [email protected], ~1590 kbps
Аудио: AC3, 6 ch, ~384 kbps - | Русский | Аватар: Легенда об Аанге / Avatar: The Last Airbender [S01] (2024) WEB-DLRip-AVC от DoMiNo & селезень | Jaskier
Формат субтитров: softsub (SRT)

Авторизуйтесь для получения доступа к скачиванию

Нет аккаунта? Регистрация открыта и займёт меньше минуты

Вход Регистрация

General
Unique ID: 48813619452143849006646424521527599832 (0×24B92940733ABC77ABB4408BF7B922D8)
Complete name: E: Avatar.The.Last.Airbender.[S01]. (2024).WEB-DLRip.x264.seleZenAvatar.The.Last.Airbender.S01E01.WEB-DLRip.x264.seleZen.mkv
Format: Matroska
Format version: Version 4
File size: 902 MiB
Duration: 1 h 3 min
Overall bit rate: 1 976 kb/s
Frame rate: 24.000 FPS
Movie name: Avatar.The.Last.Airbender.S01E01.WEB-DLRip.x264.seleZen
Encoded date: 24.02.2024 14:09:00 UTC
Writing application: mkvmerge v82.0 ('I’m The President') 64-bit
Writing library: libebml v1.4.5 + libmatroska v1.7.1
Cover: Yes
Attachments: cover.jpg / small_cover.jpg

Video
ID: 1
Format: AVC
Format/Info: Advanced Video Codec
Format profile: [email protected]
Format settings: CABAC / 10 Ref Frames
Format settings, CABAC: Yes
Format settings, Reference: 10 frames
Codec ID: V_MPEG4/ISO/AVC
Duration: 1 h 3 min
Bit rate: 1 590 kb/s
Width: 1 024 pixels
Height: 464 pixels
Display aspect ratio: 2.2:1
Frame rate mode: Constant
Frame rate: 24.000 FPS
Color space: YUV
Chroma subsampling: 4:2:0
Bit depth: 8 bits
Scan type: Progressive
Bits/(Pixel*Frame): 0.139
Stream size: 726 MiB (80%)
Title: -=DoMiNo=-
Writing library: x264 core 164 r3179 -DoMiNo
Encoding settings: cabac=1 / ref=10 / deblock=1:-2:-1 / analyse=0×3:0×133 / me=umh / subme=10 / psy=1 / psy_rd=1.00:0.15 / mixed_ref=1 / me_range=32 / chroma_me=1 / trellis=2 / 8×8dct=1 / cqm=0 / deadzone=21,11 / fast_pskip=0 / chroma_qp_offset=-3 / threads=17 / lookahead_threads=3 / sliced_threads=0 / nr=0 / decimate=0 / interlaced=0 / bluray_compat=0 / constrained_intra=0 / bframes=10 / b_pyramid=2 / b_adapt=2 / b_bias=0 / direct=1 / weightb=1 / open_gop=0 / weightp=2 / keyint=250 / keyint_min=24 / scenecut=40 / intra_refresh=0 / rc_lookahead=60 / rc=crf / mbtree=0 / crf=19.3 / qcomp=0.60 / qpmin=0 / qpmax=69 / qpstep=4 / vbv_maxrate=50000 / vbv_bufsize=62500 / crf_max=0.0 / nal_hrd=none / filler=0 / ip_ratio=1.30 / pb_ratio=1.30 / aq=1:0.90
Language: English
Default: Yes
Forced: No
Color range: Limited
Color primaries: BT.709
Transfer characteristics: BT.709
Matrix coefficients: BT.709

Audio
ID: 2
Format: AC-3
Format/Info: Audio Coding 3
Commercial name: Dolby Digital
Codec ID: A_AC3
Duration: 1 h 3 min
Bit rate mode: Constant
Bit rate: 384 kb/s
Channel (s): 6 channels
Channel layout: L R C LFE Ls Rs
Sampling rate: 48.0 kHz
Frame rate: 31.250 FPS (1536 SPF)
Compression mode: Lossy
Stream size: 175 MiB (19%)
Title: Jaskier
Language: Russian
Service kind: Complete Main
Default: Yes
Forced: No

Text #1
ID: 3
Format: UTF-8
Codec ID: S_TEXT/UTF8
Codec ID/Info: UTF-8 Plain Text
Duration: 59 min 9 s
Bit rate: 63 b/s
Frame rate: 0.165 FPS
Count of elements: 585
Stream size: 27.5 KiB (0%)
Language: Russian
Default: No
Forced: No

Text #2
ID: 4
Format: UTF-8
Codec ID: S_TEXT/UTF8
Codec ID/Info: UTF-8 Plain Text
Duration: 56 min 57 s
Bit rate: 44 b/s
Frame rate: 0.171 FPS
Count of elements: 584
Stream size: 18.5 KiB (0%)
Language: English
Default: No
Forced: No

Text #3
ID: 5
Format: UTF-8
Codec ID: S_TEXT/UTF8
Codec ID/Info: UTF-8 Plain Text
Duration: 57 min 35 s
Bit rate: 56 b/s
Frame rate: 0.248 FPS
Count of elements: 858
Stream size: 23.9 KiB (0%)
Title: SDH
Language: English
Default: No
Forced: No

Другие фильмы
У данной публикации пока нет комментариев.
Будь первым, оставь своё мнение в комментариях!
Информация
Посетители, находящиеся в группе Гости, не могут оставлять комментарии к данной публикации.
Самый популярный релиз недели
Донаты
Мы в соц. сетях / RSS

Лучшие релизы месяца
Лучшие SD недели
Лучшие 720p недели
Лучшие 1080p недели
Лучшие 4K недели
Вы недавно смотрели
Реклама
Последние комментарии
...

ruslan6971

21 апреля 2024 19:59

...

Tony1984

20 апреля 2024 14:36

...

bolonka123

19 апреля 2024 10:05

...

Sergunka

17 апреля 2024 23:31

...

-=DoMiNo=-

17 апреля 2024 13:52

Реклама