+14

Меч короля / Bastarden / The Promised Land (2023) HDRip-AVC от DoMiNo & селезень | D, A | Пифагор, Soundmasters, Сербин

Информация о фильме
Название: Меч короля
Оригинальное название: Bastarden / The Promised Land
Год выпуска: 2023
Жанр: драма, биография, история
Режиссер: Николай Арсель / Nikolaj Arcel
В ролях: Мадс Миккельсен, Аманда Коллин, Густав Линд, Кристин Куят Торп, Якоб Ульрик Ломанн, Мортен Хи Андерсен, Сёрен Маллинг, Магнус Креппер, Томас В. Габриэльссон, Феликс Крамер

О фильме:
Датский король отправляет своего лучшего рыцаря обуздать дикие земли, покуда простирается его длань. Но здесь, за стенами высоких замков, свои законы. Местные князья не спешат подчиняться королевскому наместнику. Они сами решают, кто будет возделывать их земли, а кто упокоится в них навсегда. Конфликт усугубляет прекрасная дева, обещанная отцом местному феодалу. Оставить её — значит потерять честь. Спасти — обречь себя на верную гибель. Но там, где опытный политик отступает, истинный рыцарь обнажает меч.

Выпущено: Дания, Швеция, Норвегия, Германия, Zentropa Entertainments, Zentropa International Berlin, Zentropa International Sweden
Продолжительность: 02:07:07
Перевод 1: Дублированный | Пифагор
Перевод 2: Дублированный (неофициальный) | Soundmasters
Перевод 3: Авторский (одноголосый, закадровый) | Ю. Сербин
Субтитры: Русские (Forced, Full), Английские

Файл
Формат: Matroska
Качество: HDRip-AVC
Видео: 1152x482 at 24.000 fps, [email protected], ~1938 kbps
Аудио 1: AC3, 6 ch, ~448 kbps - | Русский | Меч короля / Bastarden / The Promised Land (2023) HDRip-AVC от DoMiNo & селезень | D, A | Пифагор, Soundmasters, Сербин | Пифагор
Аудио 2: AC3, 2 ch, ~192 kbps - | Русский | | Soundmasters
Аудио 3: AC3, 6 ch, ~384 kbps - | Русский | | Ю. Сербин
Формат субтитров: softsub (SRT)

Авторизуйтесь для получения доступа к скачиванию

Нет аккаунта? Регистрация открыта и займёт меньше минуты

Вход Регистрация

x264 [info]: frame I: 1553 Avg QP: 13.91 size: 72632
x264 [info]: frame P: 35335 Avg QP: 15.56 size: 22921
x264 [info]: frame B: 146192 Avg QP: 17.91 size: 6330

General
Unique ID: 59382235309247406156816191056822166229 (0×2CAC9A3E66CF4C57399909294C6C62D5)
Complete name: S: Bastarden.2023.2xDUB.AVO.HDRip.x264.seleZen.mkv
Format: Matroska
Format version: Version 4
File size: 2.63 GiB
Duration: 2 h 7 min
Overall bit rate: 2 964 kb/s
Frame rate: 24.000 FPS
Movie name: Bastarden.2023.2xDUB.AVO.HDRip.x264.seleZen
Encoded date: 28.05.2024 14:19:07 UTC
Writing application: mkvmerge v84.0 ('Sleeper') 64-bit
Writing library: libebml v1.4.5 + libmatroska v1.7.1
Cover: Yes
Attachments: cover.jpg / small_cover.jpg

Video
ID: 1
Format: AVC
Format/Info: Advanced Video Codec
Format profile: [email protected]
Format settings: CABAC / 12 Ref Frames
Format settings, CABAC: Yes
Format settings, Reference: 12 frames
Codec ID: V_MPEG4/ISO/AVC
Duration: 2 h 7 min
Bit rate: 1 938 kb/s
Width: 1 152 pixels
Height: 482 pixels
Display aspect ratio: 2.39:1
Frame rate mode: Constant
Frame rate: 24.000 FPS
Color space: YUV
Chroma subsampling: 4:2:0
Bit depth: 8 bits
Scan type: Progressive
Bits/(Pixel*Frame): 0.145
Stream size: 1.72 GiB (65%)
Title: -=DoMiNo=-
Writing library: x264 core 164 r3172 -DoMiNo
Encoding settings: cabac=1 / ref=12 / deblock=1:-2:-2 / analyse=0×3:0×133 / me=umh / subme=10 / psy=1 / psy_rd=1.05:0.03 / mixed_ref=1 / me_range=32 / chroma_me=1 / trellis=2 / 8×8dct=1 / cqm=0 / deadzone=21,11 / fast_pskip=0 / chroma_qp_offset=-3 / threads=17 / lookahead_threads=3 / sliced_threads=0 / nr=0 / decimate=1 / interlaced=0 / bluray_compat=0 / constrained_intra=0 / bframes=12 / b_pyramid=2 / b_adapt=2 / b_bias=0 / direct=3 / weightb=1 / open_gop=0 / weightp=2 / keyint=250 / keyint_min=24 / scenecut=40 / intra_refresh=0 / rc_lookahead=60 / rc=crf / mbtree=0 / crf=18.0 / qcomp=0.60 / qpmin=0 / qpmax=69 / qpstep=4 / vbv_maxrate=50000 / vbv_bufsize=62500 / crf_max=0.0 / nal_hrd=none / filler=0 / ip_ratio=1.40 / pb_ratio=1.25 / aq=3:0.80
Language: English
Default: Yes
Forced: No

Audio #1
ID: 2
Format: AC-3
Format/Info: Audio Coding 3
Commercial name: Dolby Digital
Codec ID: A_AC3
Duration: 2 h 7 min
Bit rate mode: Constant
Bit rate: 448 kb/s
Channel (s): 6 channels
Channel layout: L R C LFE Ls Rs
Sampling rate: 48.0 kHz
Frame rate: 31.250 FPS (1536 SPF)
Compression mode: Lossy
Stream size: 407 MiB (15%)
Title: Дублированный | Пифагор
Language: Russian
Service kind: Complete Main
Default: Yes
Forced: No
Dialog Normalization: -27 dB
compr: -0.28 dB
cmixlev: -3.0 dB
surmixlev: -3 dB
mixlevel: 281 dB
roomtyp: 3
ltrtcmixlev: -3.0 dB
ltrtsurmixlev: -3.0 dB
lorocmixlev: -3.0 dB
lorosurmixlev: -4.5 dB
dialnorm_Average: -27 dB
dialnorm_Minimum: -27 dB
dialnorm_Maximum: -27 dB

Audio #2
ID: 3
Format: AC-3
Format/Info: Audio Coding 3
Commercial name: Dolby Digital
Codec ID: A_AC3
Duration: 2 h 7 min
Bit rate mode: Constant
Bit rate: 192 kb/s
Channel (s): 2 channels
Channel layout: L R
Sampling rate: 48.0 kHz
Frame rate: 31.250 FPS (1536 SPF)
Compression mode: Lossy
Stream size: 175 MiB (6%)
Title: Дублированный | Soundmasters
Language: Russian
Service kind: Complete Main
Default: No
Forced: No
Dialog Normalization: -31 dB
dialnorm_Average: -31 dB
dialnorm_Minimum: -31 dB
dialnorm_Maximum: -31 dB

Audio #3
ID: 4
Format: AC-3
Format/Info: Audio Coding 3
Commercial name: Dolby Digital
Codec ID: A_AC3
Duration: 2 h 7 min
Bit rate mode: Constant
Bit rate: 384 kb/s
Channel (s): 6 channels
Channel layout: L R C LFE Ls Rs
Sampling rate: 48.0 kHz
Frame rate: 31.250 FPS (1536 SPF)
Compression mode: Lossy
Stream size: 349 MiB (13%)
Title: Ю. Сербин
Language: Russian
Service kind: Complete Main
Default: No
Forced: No
Dialog Normalization: -31 dB
cmixlev: -4.5 dB
surmixlev: -6 dB
dialnorm_Average: -31 dB
dialnorm_Minimum: -31 dB
dialnorm_Maximum: -31 dB

Text #1
ID: 5
Format: UTF-8
Codec ID: S_TEXT/UTF8
Codec ID/Info: UTF-8 Plain Text
Duration: 2 h 6 min
Bit rate: 1 b/s
Frame rate: 0.002 FPS
Count of elements: 16
Stream size: 951 Bytes (0%)
Title: Forced
Language: Russian
Default: No
Forced: No

Text #2
ID: 6
Format: UTF-8
Codec ID: S_TEXT/UTF8
Codec ID/Info: UTF-8 Plain Text
Duration: 2 h 6 min
Bit rate: 56 b/s
Frame rate: 0.139 FPS
Count of elements: 1059
Stream size: 52.4 KiB (0%)
Title: Full
Language: Russian
Default: No
Forced: No

Text #3
ID: 7
Format: UTF-8
Codec ID: S_TEXT/UTF8
Codec ID/Info: UTF-8 Plain Text
Duration: 2 h 1 min
Bit rate: 40 b/s
Frame rate: 0.110 FPS
Count of elements: 804
Stream size: 36.1 KiB (0%)
Language: English
Default: No
Forced: No

Menu
00:00:00.000: en: Chapter 01
00:16:10.667: en: Chapter 02
00:30:16.583: en: Chapter 03
00:46:32.292: en: Chapter 04
01:02:41.708: en: Chapter 05
01:18:14.833: en: Chapter 06
01:35:21.250: en: Chapter 07
01:48:55.375: en: Chapter 08
02:02:54.208: en: Chapter 09

Другие фильмы
Комментарии:

...
-=DoMiNo=- 28 мая 2024 20:11
0

Дублированный | Пифагор

...
zaxz 8 февраля 2024 23:16
0

Господа, а кто нибудь в курсе будет ли нормальный перевод? Дубляж или многоголоска, ВирусПроджект просто ужасен (без обид), Сербин обычно хорош, но одноголоски не смотрю...

Информация
Посетители, находящиеся в группе Гости, не могут оставлять комментарии к данной публикации.
Самый популярный релиз недели
Донаты
Мы в соц. сетях / RSS

Лучшие релизы месяца
Лучшие SD недели
Лучшие 720p недели
Лучшие 1080p недели
Лучшие 4K недели
Вы недавно смотрели
Реклама
Последние комментарии
...

Bonzo

14 июня 2024 14:52

...

rmzshka

13 июня 2024 17:48

...

rmzshka

13 июня 2024 12:24

...

LisNick

13 июня 2024 08:45

...

SkySpirit

8 июня 2024 19:54

Реклама