+6

Крампус / Krampus (2015) UHD BDRemux 2160p от селезень | 4K | HDR | Dolby Vision Profile 8 | D | The Naughty Cut

Информация о фильме
Название: Крампус
Оригинальное название: Krampus
Год выхода: 2015
Жанр: ужасы, фэнтези, драма, комедия
Режиссер: Майкл Догерти
В ролях: Эмджей Энтони, Адам Скотт, Тони Коллетт, Стефания Оуэн, Криста Штадлер, Кончата Феррелл, Эллисон Толман, Дэвид Кокнер, Маверик Флэк, Куеени Сэмюэл

О фильме: История о демоне, который во время Рождества выискивает непослушных детей, чтобы наказать их.

Страна: США
Студия: Legendary Pictures, Universal Pictures
Продолжительность: 01:42:20
Перевод: Дублированный | Лицензия

Качество: BDRemux 2160p
Видео: 3840x2160 at 24.000 fps, MPEG-H HEVC HDR Video, 75900 kbps
Аудио #01: 48 kHz, AC3, 5.1, 448 Kbps | Дублированный | Лицензия | RUS |Крампус / Krampus (2015) UHD BDRemux 2160p от селезень | 4K | HDR | Dolby Vision Profile 8 | D |  The Naughty Cut
Аудио #02: 48 kHz, TrueHD, 7.1, 3650 Kbps | Оригинал | ENG |
Аудио #03: 48 kHz, AC3, 5.1, 384 Kbps | Оригинал | ENG |
Субтитры: Русские (Forced, full), Английские

***Версия фильма The Naughty Cut. Отличие от театральной ~4 минуты. Имеются вставки голосового перевода, сделанные нейросетью. Пересобраны русские субтитры. Работа с фильмом: селезень.

Крампус / Krampus (2015) UHD BDRemux 2160p от селезень | 4K | HDR | Dolby Vision Profile 8 | D |  The Naughty Cut

Авторизуйтесь для получения доступа к скачиванию

Нет аккаунта? Регистрация открыта и займёт меньше минуты

Вход Регистрация

General
Unique ID : 221420839453276927563529122841723880800 (0xA6941A3D88D734D3E77722EDF1CB4560)
Complete name : H:\VideoH\Krampus.2015.The.Naughty.Cut.BDREMUX.2160p.HDR.DVP8.seleZen.mkv
Format : Matroska
Format version : Version 4
File size : 57.5 GiB
Duration : 1 h 42 min
Overall bit rate mode : Variable
Overall bit rate : 80.4 Mb/s
Frame rate : 24.000 FPS
Movie name : Krampus 2015 The Naughty Cut from seleZen
Encoded date : 2023-12-03 14:55:39 UTC
Writing application : mkvmerge v80.0 ('Roundabout') 64-bit
Writing library : libebml v1.4.4 + libmatroska v1.7.1

Video
ID : 1
ID in the original source m : 4117 (0x1015)
Format : HEVC
Format/Info : High Efficiency Video Coding
Format profile : Main [email protected]@High
HDR format : Dolby Vision, Version 1.0, dvhe.08.06, BL+RPU, Blu-ray compatible / SMPTE ST 2086, HDR10 compatible
Codec ID : V_MPEGH/ISO/HEVC
Duration : 1 h 42 min
Bit rate : 75.9 Mb/s
Width : 3 840 pixels
Height : 2 160 pixels
Display aspect ratio : 16:9
Frame rate mode : Constant
Frame rate : 24.000 FPS
Color space : YUV
Chroma subsampling : 4:2:0 (Type 2)
Bit depth : 10 bits
Bits/(Pixel*Frame) : 0.381
Time code of first frame : 00:00:00:00
Stream size : 54.2 GiB (94%)
Language : English
Default : No
Forced : No
Color range : Limited
Color primaries : BT.2020
Transfer characteristics : PQ
Matrix coefficients : BT.2020 non-constant
Mastering display color pri : Display P3
Mastering display luminance : min: 0.0001 cd/m2, max: 1000 cd/m2
Maximum Content Light Level : 10000 cd/m2
Maximum Frame-Average Light : 635 cd/m2
Original source medium : Blu-ray

Audio #1
ID : 2
Format : AC-3
Format/Info : Audio Coding 3
Commercial name : Dolby Digital
Codec ID : A_AC3
Duration : 1 h 42 min
Bit rate mode : Constant
Bit rate : 448 kb/s
Channel(s) : 6 channels
Channel layout : L R C LFE Ls Rs
Sampling rate : 48.0 kHz
Frame rate : 31.250 FPS (1536 SPF)
Compression mode : Lossy
Stream size : 328 MiB (1%)
Title : Dub [License]
Language : Russian
Service kind : Complete Main
Default : Yes
Forced : No

Audio #2
ID : 3
Format : MLP FBA 16-ch
Format/Info : Meridian Lossless Packing FBA with 16-channel presentation
Commercial name : Dolby TrueHD with Dolby Atmos
Codec ID : A_TRUEHD
Duration : 1 h 42 min
Bit rate mode : Variable
Bit rate : 3 650 kb/s
Maximum bit rate : 6 618 kb/s
Channel(s) : 8 channels
Channel layout : L R C LFE Ls Rs Lb Rb
Sampling rate : 48.0 kHz
Frame rate : 1 200.000 FPS (40 SPF)
Compression mode : Lossless
Stream size : 2.61 GiB (5%)
Title : Original
Language : English
Default : No
Forced : No
Number of dynamic objects : 11
Bed channel count : 1 channel
Bed channel configuration : LFE

Audio #3
ID : 4
Format : AC-3
Format/Info : Audio Coding 3
Commercial name : Dolby Digital
Codec ID : A_AC3
Duration : 1 h 42 min
Bit rate mode : Constant
Bit rate : 384 kb/s
Channel(s) : 6 channels
Channel layout : L R C LFE Ls Rs
Sampling rate : 48.0 kHz
Frame rate : 31.250 FPS (1536 SPF)
Compression mode : Lossy
Stream size : 281 MiB (0%)
Language : English
Service kind : Complete Main
Default : No
Forced : No

Text #1
ID : 5
Format : UTF-8
Codec ID : S_TEXT/UTF8
Codec ID/Info : UTF-8 Plain Text
Duration : 1 h 35 min
Bit rate : 1 b/s
Frame rate : 0.004 FPS
Count of elements : 24
Stream size : 1.06 KiB (0%)
Title : Forced
Language : Russian
Default : No
Forced : No

Text #2
ID : 6
Format : UTF-8
Codec ID : S_TEXT/UTF8
Codec ID/Info : UTF-8 Plain Text
Duration : 1 h 35 min
Bit rate : 78 b/s
Frame rate : 0.207 FPS
Count of elements : 1186
Stream size : 55.1 KiB (0%)
Title : Full
Language : Russian
Default : No
Forced : No

Text #3
ID : 7
Format : UTF-8
Codec ID : S_TEXT/UTF8
Codec ID/Info : UTF-8 Plain Text
Duration : 1 h 41 min
Bit rate : 50 b/s
Frame rate : 0.217 FPS
Count of elements : 1315
Stream size : 37.3 KiB (0%)
Title : Full
Language : English
Default : No
Forced : No

Menu
00:00:00.000 : en:Глава 01
00:11:43.542 : en:Глава 02
00:20:10.333 : en:Глава 03
00:29:03.292 : en:Глава 04
00:36:45.750 : en:Глава 05
00:44:35.250 : en:Глава 06
00:52:25.250 : en:Глава 07
01:00:09.750 : en:Глава 08
01:08:01.833 : en:Глава 09
01:15:11.375 : en:Глава 10
01:23:01.208 : en:Глава 11
01:32:07.833 : en:Глава 12

Другие фильмы
У данной публикации пока нет комментариев.
Будь первым, оставь своё мнение в комментариях!
Информация
Посетители, находящиеся в группе Гости, не могут оставлять комментарии к данной публикации.
Самый популярный релиз недели
Донаты
Мы в соц. сетях / RSS

Лучшие релизы месяца
Лучшие SD недели
Лучшие 720p недели
Лучшие 1080p недели
Лучшие 4K недели
Вы недавно смотрели
Реклама
Последние комментарии
...

korelov

23 февраля 2024 14:35

...

Desol

21 февраля 2024 00:28

...

diabloq

20 февраля 2024 14:17

...

slightlymad

17 февраля 2024 21:01

...

takezi

15 февраля 2024 22:10

Реклама