+7

Ренфилд / Renfield (2023) UHD BDRemux 2160p от селезень | 4K | HDR | Dolby Vision Profile 8 | D, P, A

Информация о фильме
Название: Ренфилд
Оригинальное название: Renfield
Год выхода: 2023
Жанр: комедия, ужасы, криминал, боевик
Режиссер: Крис МакКей
В ролях: Николас Холт, Николас Кейдж, Аквафина, Бен Шварц, Шохре Агдашлу, Брэндон Скотт Джонс, Адриан Мартинес, Камилль Чен, Бесс Роус, Дженна Кэнелл

О фильме: Новый Орлеан. Ренфилд, верный слуга графа Дракулы, подыскивает своему хозяину пропитание в группе психологической поддержки пострадавших от токсичных отношений: разыскивает их мучителей и скармливает вампиру. Внезапно он осознаёт, что сам стал жертвой нарцисса с клыками, и решает избавиться от его власти. А в это время неподкупная сотрудница полиции, пытаясь прижать местную банду наркоторговцев, оказывается под дулом пистолета одного из её главарей. На помощь девушке внезапно приходит оказавшийся рядом Ренфилд.

Страна: США
Студия: Skybound Entertainment, Universal Pictures
Продолжительность: 01:33:34
Перевод(ы) :
#1: Дублированный | Bravo Records Georgia / Movie Dubbing
#2: Профессиональный многоголосый | TVShows
#3: Авторский | М. Яроцкий (kyberpunk)

Качество: BDRemux 2160p
Видео: 3840x2160 at 23.976 fps, MPEG-H HEVC HDR Video, 68000 kbps
Аудио #01: 48 kHz, AC3, 5.1, 384 Kbps | Дублированный | Bravo Records Georgia / Movie Dubbing | RUS |Ренфилд / Renfield (2023) UHD BDRemux 2160p от селезень | 4K | HDR | Dolby Vision Profile 8 | D, P, A
Аудио #02: 48 kHz, AC3, 5.1, 384 Kbps | Профессиональный многоголосый | TVShows | RUS |
Аудио #03: 48 kHz, AC3, 5.1, 640 Kbps | Авторский | М. Яроцкий (kyberpunk) | RUS |
Аудио #04: 48 kHz, TrueHD, 7.1, 3027 Kbps | Оригинал | ENG |
Аудио #05: 48 kHz, AC3, 5.1, 448 Kbps | Оригинал | ENG |
Субтитры: Субтитры: Русские (Forced, full), английские

Ренфилд / Renfield (2023) UHD BDRemux 2160p от селезень | 4K | HDR | Dolby Vision Profile 8 | D, P, A

Авторизуйтесь для получения доступа к скачиванию

Нет аккаунта? Регистрация открыта и займёт меньше минуты

Вход Регистрация

General
Unique ID : 316864885573604368971716675047555620847 (0xEE61F50776271579C0F1894EEF3C5FEF)
Complete name : H:\VideoH\Renfield.2023.BDREMUX.2160p.HDR.DVP8.seleZen.mkv
Format : Matroska
Format version : Version 4
File size : 47.7 GiB
Duration : 1 h 33 min
Overall bit rate mode : Variable
Overall bit rate : 73.0 Mb/s
Frame rate : 23.976 FPS
Movie name : Renfield (2023) from seleZen
Encoded date : 2023-12-01 15:44:41 UTC
Writing application : mkvmerge v80.0 ('Roundabout') 64-bit
Writing library : libebml v1.4.4 + libmatroska v1.7.1

Video
ID : 1
ID in the original source m : 4117 (0x1015)
Format : HEVC
Format/Info : High Efficiency Video Coding
Format profile : Main [email protected]@High
HDR format : Dolby Vision, Version 1.0, dvhe.08.06, BL+RPU, Blu-ray compatible / SMPTE ST 2086, HDR10 compatible
Codec ID : V_MPEGH/ISO/HEVC
Duration : 1 h 33 min
Bit rate : 68.0 Mb/s
Width : 3 840 pixels
Height : 2 160 pixels
Display aspect ratio : 16:9
Frame rate mode : Constant
Frame rate : 23.976 (24000/1001) FPS
Color space : YUV
Chroma subsampling : 4:2:0 (Type 2)
Bit depth : 10 bits
Bits/(Pixel*Frame) : 0.342
Stream size : 44.5 GiB (93%)
Language : English
Default : No
Forced : No
Color range : Limited
Color primaries : BT.2020
Transfer characteristics : PQ
Matrix coefficients : BT.2020 non-constant
Mastering display color pri : Display P3
Mastering display luminance : min: 0.0001 cd/m2, max: 1000 cd/m2
Maximum Content Light Level : 815 cd/m2
Maximum Frame-Average Light : 251 cd/m2
Original source medium : Blu-ray

Audio #1
ID : 2
Format : AC-3
Format/Info : Audio Coding 3
Commercial name : Dolby Digital
Codec ID : A_AC3
Duration : 1 h 33 min
Bit rate mode : Constant
Bit rate : 384 kb/s
Channel(s) : 6 channels
Channel layout : L R C LFE Ls Rs
Sampling rate : 48.0 kHz
Frame rate : 31.250 FPS (1536 SPF)
Compression mode : Lossy
Stream size : 257 MiB (1%)
Title : Dub_Bravo Records Georgia
Language : Russian
Service kind : Complete Main
Default : Yes
Forced : No

Audio #2
ID : 3
Format : AC-3
Format/Info : Audio Coding 3
Commercial name : Dolby Digital
Codec ID : A_AC3
Duration : 1 h 33 min
Bit rate mode : Constant
Bit rate : 384 kb/s
Channel(s) : 6 channels
Channel layout : L R C LFE Ls Rs
Sampling rate : 48.0 kHz
Frame rate : 31.250 FPS (1536 SPF)
Compression mode : Lossy
Stream size : 257 MiB (1%)
Title : MVO_TVShows
Language : Russian
Service kind : Complete Main
Default : No
Forced : No

Audio #3
ID : 4
Format : AC-3
Format/Info : Audio Coding 3
Commercial name : Dolby Digital
Codec ID : A_AC3
Duration : 1 h 33 min
Bit rate mode : Constant
Bit rate : 640 kb/s
Channel(s) : 6 channels
Channel layout : L R C LFE Ls Rs
Sampling rate : 48.0 kHz
Frame rate : 31.250 FPS (1536 SPF)
Compression mode : Lossy
Stream size : 428 MiB (1%)
Title : AVO_kyberpunk
Language : Russian
Service kind : Complete Main
Default : No
Forced : No

Audio #4
ID : 5
Format : MLP FBA 16-ch
Format/Info : Meridian Lossless Packing FBA with 16-channel presentation
Commercial name : Dolby TrueHD with Dolby Atmos
Codec ID : A_TRUEHD
Duration : 1 h 33 min
Bit rate mode : Variable
Bit rate : 3 027 kb/s
Maximum bit rate : 5 313 kb/s
Channel(s) : 8 channels
Channel layout : L R C LFE Ls Rs Lb Rb
Sampling rate : 48.0 kHz
Frame rate : 1 200.000 FPS (40 SPF)
Compression mode : Lossless
Stream size : 1.98 GiB (4%)
Title : Original
Language : English
Default : No
Forced : No
Number of dynamic objects : 11
Bed channel count : 1 channel
Bed channel configuration : LFE

Audio #5
ID : 6
Format : AC-3
Format/Info : Audio Coding 3
Commercial name : Dolby Digital
Codec ID : A_AC3
Duration : 1 h 33 min
Bit rate mode : Constant
Bit rate : 448 kb/s
Channel(s) : 6 channels
Channel layout : L R C LFE Ls Rs
Sampling rate : 48.0 kHz
Frame rate : 31.250 FPS (1536 SPF)
Compression mode : Lossy
Stream size : 300 MiB (1%)
Language : English
Service kind : Complete Main
Default : No
Forced : No

Text #1
ID : 7
Format : UTF-8
Codec ID : S_TEXT/UTF8
Codec ID/Info : UTF-8 Plain Text
Duration : 1 h 28 min
Bit rate : 1 b/s
Frame rate : 0.003 FPS
Count of elements : 18
Stream size : 758 Bytes (0%)
Title : Forced
Language : Russian
Default : No
Forced : Yes

Text #2
ID : 8
Format : UTF-8
Codec ID : S_TEXT/UTF8
Codec ID/Info : UTF-8 Plain Text
Duration : 1 h 33 min
Bit rate : 89 b/s
Frame rate : 0.267 FPS
Count of elements : 1493
Stream size : 60.9 KiB (0%)
Title : Full [WEB]
Language : Russian
Default : No
Forced : No

Text #3
ID : 9
Format : UTF-8
Codec ID : S_TEXT/UTF8
Codec ID/Info : UTF-8 Plain Text
Duration : 1 h 28 min
Bit rate : 111 b/s
Frame rate : 0.275 FPS
Count of elements : 1463
Stream size : 72.4 KiB (0%)
Title : Full [Cool Story Blog 18+]
Language : Russian
Default : No
Forced : No

Text #4
ID : 10
Format : UTF-8
Codec ID : S_TEXT/UTF8
Codec ID/Info : UTF-8 Plain Text
Duration : 1 h 32 min
Bit rate : 70 b/s
Frame rate : 0.292 FPS
Count of elements : 1625
Stream size : 48.2 KiB (0%)
Title : Full
Language : English
Default : No
Forced : No

Text #5
ID : 11
Format : UTF-8
Codec ID : S_TEXT/UTF8
Codec ID/Info : UTF-8 Plain Text
Duration : 1 h 33 min
Bit rate : 77 b/s
Frame rate : 0.322 FPS
Count of elements : 1808
Stream size : 53.0 KiB (0%)
Title : SDH
Language : English
Default : No
Forced : No

Menu
00:00:00.000 : en:Глава 01
00:05:06.264 : en:Глава 02
00:07:47.467 : en:Глава 03
00:12:58.903 : en:Глава 04
00:16:46.923 : en:Глава 05
00:21:51.143 : en:Глава 06
00:29:08.622 : en:Глава 07
00:34:44.582 : en:Глава 08
00:39:20.567 : en:Глава 09
00:41:47.547 : en:Глава 10
00:46:52.852 : en:Глава 11
00:53:22.616 : en:Глава 12
00:57:06.965 : en:Глава 13
01:01:42.782 : en:Глава 14
01:05:39.644 : en:Глава 15
01:10:31.769 : en:Глава 16
01:14:26.420 : en:Глава 17
01:18:39.214 : en:Глава 18
01:24:20.347 : en:Глава 19
01:26:51.039 : en:Глава 20

Другие фильмы
У данной публикации пока нет комментариев.
Будь первым, оставь своё мнение в комментариях!
Информация
Посетители, находящиеся в группе Гости, не могут оставлять комментарии к данной публикации.
Самый популярный релиз недели
Донаты
Мы в соц. сетях / RSS

Лучшие релизы месяца
Лучшие SD недели
Лучшие 720p недели
Лучшие 1080p недели
Лучшие 4K недели
Вы недавно смотрели
Реклама
Последние комментарии
...

korelov

23 февраля 2024 14:35

...

Desol

21 февраля 2024 00:28

...

diabloq

20 февраля 2024 14:17

...

slightlymad

17 февраля 2024 21:01

...

takezi

15 февраля 2024 22:10

Реклама