+11

Искусство по понятиям / The Kill Room (2023) UHD BDRemux 2160p селезень | 4K | HDR | Dolby Vision Profile 8 | D

Информация о фильме
Название: Искусство по понятиям
Оригинальное название: The Kill Room
Год выхода: 2023
Жанр: триллер, комедия
Режиссер: Николь Паон
В ролях: Ума Турман, Сэмюэл Л. Джексон, Джо Манганьелло, Эми Кым, Деби Мейзар, Николай Цанков, Александр Соковиков, Дженнифер Ким, Майя Хоук, Майк Дойл

О фильме: Неудачливая хозяйка арт-галереи Патрис, киллер Реджи и его босс Гордон ввязываются в опасную авантюру по отмыванию денег. Дело принимает неожиданный оборот, когда Реджи становится восходящей звездой авангардной живописи. Так вдохновенное преступление превращается в настоящее искусство.

Страна: США
Студия: BKStudios, BondIt, Bradley Pilz Productions, Buffalo 8 Productions, Complex Corp, Cranium Entertainment, Go-T?bun no Hanayome Production Committee, Head Gear Films, Idiot Savant Pictures, Metrol Technology, Slated, Such Content, Sucheta DreamWorks Productions [IND], Untitled Entertainment, Yale Productions
Продолжительность: 01:37:05
Перевод: Дублированный | Кириллица

Качество: BDRemux 2160p
Видео: 3840x2160 at 23.976 fps, MPEG-H HEVC HDR Video, 76500 kbps
Аудио #01: 48 kHz, AC3, 5.1, 384 Kbps | Дублированный | Кириллица | RUS |Искусство по понятиям / The Kill Room (2023) UHD BDRemux 2160p селезень | 4K | HDR | Dolby Vision Profile 8 | D
Аудио #02: 48 kHz, DTS-HD MA, 5.1, 3145 Kbps | Оригинал | ENG |
Субтитры: Английские

Искусство по понятиям / The Kill Room (2023) UHD BDRemux 2160p селезень | 4K | HDR | Dolby Vision Profile 8 | D

Авторизуйтесь для получения доступа к скачиванию

Нет аккаунта? Регистрация открыта и займёт меньше минуты

Вход Регистрация

General
Unique ID : 38037260527543912343585878696649437671 (0x1C9DB5BC59A4DFBF987B6155833E31E7)
Complete name : H:\VideoH\The.Kill.Room.2023.BDREMUX.2160p.HDR.DVP8.seleZen.mkv
Format : Matroska
Format version : Version 4
File size : 54.3 GiB
Duration : 1 h 37 min
Overall bit rate mode : Variable
Overall bit rate : 80.1 Mb/s
Frame rate : 23.976 FPS
Movie name : The.Kill.Room.2023.seleZen
Encoded date : 2023-11-29 14:20:30 UTC
Writing application : mkvmerge v80.0 ('Roundabout') 64-bit
Writing library : libebml v1.4.4 + libmatroska v1.7.1

Video
ID : 1
ID in the original source m : 4117 (0x1015)
Format : HEVC
Format/Info : High Efficiency Video Coding
Format profile : Main [email protected]@High
HDR format : Dolby Vision, Version 1.0, dvhe.08.06, BL+RPU, Blu-ray compatible / SMPTE ST 2086, HDR10 compatible
Codec ID : V_MPEGH/ISO/HEVC
Duration : 1 h 37 min
Bit rate : 76.5 Mb/s
Width : 3 840 pixels
Height : 2 160 pixels
Display aspect ratio : 16:9
Frame rate mode : Constant
Frame rate : 23.976 (24000/1001) FPS
Color space : YUV
Chroma subsampling : 4:2:0 (Type 2)
Bit depth : 10 bits
Bits/(Pixel*Frame) : 0.385
Time code of first frame : 00:00:00:00
Stream size : 51.9 GiB (96%)
Language : English
Default : No
Forced : No
Color range : Limited
Color primaries : BT.2020
Transfer characteristics : PQ
Matrix coefficients : BT.2020 non-constant
Mastering display color pri : Display P3
Mastering display luminance : min: 0.0050 cd/m2, max: 4000 cd/m2
Maximum Content Light Level : 353 cd/m2
Maximum Frame-Average Light : 140 cd/m2
Original source medium : Blu-ray

Audio #1
ID : 2
Format : AC-3
Format/Info : Audio Coding 3
Commercial name : Dolby Digital
Codec ID : A_AC3
Duration : 1 h 37 min
Bit rate mode : Constant
Bit rate : 384 kb/s
Channel(s) : 6 channels
Channel layout : L R C LFE Ls Rs
Sampling rate : 48.0 kHz
Frame rate : 31.250 FPS (1536 SPF)
Compression mode : Lossy
Stream size : 267 MiB (0%)
Title : Дублированный | Кириллица
Language : Russian
Service kind : Complete Main
Default : Yes
Forced : No

Audio #2
ID : 3
Format : DTS XLL
Format/Info : Digital Theater Systems
Commercial name : DTS-HD Master Audio
Codec ID : A_DTS
Duration : 1 h 37 min
Bit rate mode : Variable
Bit rate : 3 145 kb/s
Channel(s) : 6 channels
Channel layout : C L R Ls Rs LFE
Sampling rate : 48.0 kHz
Frame rate : 93.750 FPS (512 SPF)
Bit depth : 24 bits
Compression mode : Lossless
Stream size : 2.13 GiB (4%)
Title : Original
Language : English
Default : No
Forced : No

Text #1
ID : 4
Format : UTF-8
Codec ID : S_TEXT/UTF8
Codec ID/Info : UTF-8 Plain Text
Duration : 1 h 30 min
Bit rate : 77 b/s
Frame rate : 0.308 FPS
Count of elements : 1670
Stream size : 51.2 KiB (0%)
Title : Full
Language : English
Default : No
Forced : No

Text #2
ID : 5
Format : UTF-8
Codec ID : S_TEXT/UTF8
Codec ID/Info : UTF-8 Plain Text
Duration : 1 h 35 min
Bit rate : 86 b/s
Frame rate : 0.344 FPS
Count of elements : 1979
Stream size : 60.6 KiB (0%)
Title : SDH
Language : English
Default : No
Forced : No

Menu
00:00:00.000 : en:Глава 01
00:05:51.977 : en:Глава 02
00:17:04.774 : en:Глава 03
00:26:22.080 : en:Глава 04
00:36:44.828 : en:Глава 05
00:46:01.175 : en:Глава 06
00:55:55.561 : en:Глава 07
01:03:51.286 : en:Глава 08
01:10:14.794 : en:Глава 09
01:19:17.419 : en:Глава 10
01:25:35.630 : en:Глава 11
01:31:24.688 : en:Глава 12

Другие фильмы
У данной публикации пока нет комментариев.
Будь первым, оставь своё мнение в комментариях!
Информация
Посетители, находящиеся в группе Гости, не могут оставлять комментарии к данной публикации.
Самый популярный релиз недели
Донаты
Мы в соц. сетях / RSS

Лучшие релизы месяца
Лучшие SD недели
Лучшие 720p недели
Лучшие 1080p недели
Лучшие 4K недели
Вы недавно смотрели
Реклама
Последние комментарии
...

korelov

23 февраля 2024 14:35

...

Desol

21 февраля 2024 00:28

...

diabloq

20 февраля 2024 14:17

...

slightlymad

17 февраля 2024 21:01

...

takezi

15 февраля 2024 22:10

Реклама