+4

Неудержимые 4 / Expend4bles (2023) BDRemux 1080p от селезень | D, P

Информация о фильме
Название: Неудержимые 4
Оригинальное название: Expend4bles
Год выхода: 2023
Жанр: боевик
Режиссер: Скотт Во
В ролях: Джейсон Стэйтем, Фифти Сент, Меган Фокс, Дольф Лундгрен, Тони Джа, Ико Увайс, Энди Гарсиа, Сильвестр Сталлоне, Рэнди Кутюр, Джейкоб Скипио

О фильме: Неудержимые несут потери: Барни Росс выбывает из строя, а Ли Кристмас отстранен от будущих операций. В команду набирают новых бойцов и отправляют возмещать ущерб. Но и они терпят поражение и попадают в плен. Теперь Ли Кристмас должен в одиночку пробраться в логово противника и освободить команду, попутно предотвратив глобальную катастрофу. Только так можно спасти мир и восстановить репутацию Неудержимых.

Страна: США
Студия: Campbell Grobman Films, Millennium Films
Продолжительность: 01:43:34
Перевод(ы):
#1: Дублированный | Велес
#2: Профессиональный многоголосый | TVShows


Качество: BDRemux 1080p
Видео: MPEG-4 AVC, 1920x1080, 34.7 Mbit/s, 23.976 fps
Аудио #01: 48 kHz, AC3, 5.1, 384 Kbps | Дублированный | Велес | RUS |Неудержимые 4 / Expend4bles (2023) BDRemux 1080p от селезень | D, P
Аудио #02: 48 kHz, E-AC3, 5.1, 384 Kbps | Дублированный | Велес | RUS |
Аудио #03: 48 kHz, AC3, 5.1, 384 Kbps | Профессиональный многоголосый | TVShows | RUS |
Аудио #04: 48 kHz, TrueHD, 7.1, 4499 Kbps | Оригинал | ENG |
Аудио #05: 48 kHz, AC3, 5.1, 640 Kbps | Оригинал | ENG |
Субтитры: Русские (Forced, full), английские

Неудержимые 4 / Expend4bles (2023) BDRemux 1080p от селезень | D, P

Авторизуйтесь для получения доступа к скачиванию

Нет аккаунта? Регистрация открыта и займёт меньше минуты

Вход Регистрация

General
Unique ID : 213080489251338980083948715776180482660 (0xA04DCF3A2C05682A5D3D870A9BF7F264)
Complete name : H:\VideoH\Expend4bles.2023.D.MVO.BDREMUX.1080p.seleZen.mkv
Format : Matroska
Format version : Version 4
File size : 29.7 GiB
Duration : 1 h 43 min
Overall bit rate mode : Variable
Overall bit rate : 41.1 Mb/s
Frame rate : 23.976 FPS
Movie name : Expend4bles.2023.seleZen
Encoded date : 2023-11-20 21:50:56 UTC
Writing application : mkvmerge v79.0 ('Funeral Pyres') 64-bit
Writing library : libebml v1.4.4 + libmatroska v1.7.1
Cover : Yes
Attachments : cover.jpg / small_cover.jpg

Video
ID : 1
Format : AVC
Format/Info : Advanced Video Codec
Format profile : High@L4.1
Format settings : CABAC / 4 Ref Frames
Format settings, CABAC : Yes
Format settings, Reference : 4 frames
Codec ID : V_MPEG4/ISO/AVC
Duration : 1 h 43 min
Bit rate mode : Variable
Bit rate : 34.7 Mb/s
Maximum bit rate : 36.8 Mb/s
Width : 1 920 pixels
Height : 1 080 pixels
Display aspect ratio : 16:9
Frame rate mode : Constant
Frame rate : 23.976 (24000/1001) FPS
Color space : YUV
Chroma subsampling : 4:2:0
Bit depth : 8 bits
Scan type : Progressive
Bits/(Pixel*Frame) : 0.698
Time code of first frame : 00:59:59:00
Stream size : 25.1 GiB (85%)
Language : English
Default : Yes
Forced : No

Audio #1
ID : 2
Format : AC-3
Format/Info : Audio Coding 3
Commercial name : Dolby Digital
Codec ID : A_AC3
Duration : 1 h 43 min
Bit rate mode : Constant
Bit rate : 384 kb/s
Channel(s) : 6 channels
Channel layout : L R C LFE Ls Rs
Sampling rate : 48.0 kHz
Frame rate : 31.250 FPS (1536 SPF)
Compression mode : Lossy
Stream size : 284 MiB (1%)
Title : Dub
Language : Russian
Service kind : Complete Main
Default : Yes
Forced : No

Audio #2
ID : 3
Format : E-AC-3
Format/Info : Enhanced AC-3
Commercial name : Dolby Digital Plus
Codec ID : A_EAC3
Duration : 1 h 43 min
Bit rate mode : Constant
Bit rate : 384 kb/s
Channel(s) : 6 channels
Channel layout : L R C LFE Ls Rs
Sampling rate : 48.0 kHz
Frame rate : 31.250 FPS (1536 SPF)
Compression mode : Lossy
Stream size : 284 MiB (1%)
Title : Dub
Language : Russian
Service kind : Complete Main
Default : No
Forced : No

Audio #3
ID : 4
Format : AC-3
Format/Info : Audio Coding 3
Commercial name : Dolby Digital
Codec ID : A_AC3
Duration : 1 h 43 min
Bit rate mode : Constant
Bit rate : 384 kb/s
Channel(s) : 6 channels
Channel layout : L R C LFE Ls Rs
Sampling rate : 48.0 kHz
Frame rate : 31.250 FPS (1536 SPF)
Compression mode : Lossy
Stream size : 284 MiB (1%)
Title : MVO_TVShows
Language : Russian
Service kind : Complete Main
Default : No
Forced : No

Audio #4
ID : 5
Format : MLP FBA 16-ch
Format/Info : Meridian Lossless Packing FBA with 16-channel presentation
Commercial name : Dolby TrueHD with Dolby Atmos
Codec ID : A_TRUEHD
Duration : 1 h 43 min
Bit rate mode : Variable
Bit rate : 4 499 kb/s
Maximum bit rate : 7 071 kb/s
Channel(s) : 8 channels
Channel layout : L R C LFE Ls Rs Lb Rb
Sampling rate : 48.0 kHz
Frame rate : 1 200.000 FPS (40 SPF)
Compression mode : Lossless
Stream size : 3.25 GiB (11%)
Title : Original
Language : English
Default : No
Forced : No
Number of dynamic objects : 11
Bed channel count : 1 channel
Bed channel configuration : LFE

Audio #5
ID : 6
Format : AC-3
Format/Info : Audio Coding 3
Commercial name : Dolby Digital
Codec ID : A_AC3
Duration : 1 h 43 min
Bit rate mode : Constant
Bit rate : 640 kb/s
Channel(s) : 6 channels
Channel layout : L R C LFE Ls Rs
Sampling rate : 48.0 kHz
Frame rate : 31.250 FPS (1536 SPF)
Compression mode : Lossy
Stream size : 474 MiB (2%)
Language : English
Service kind : Complete Main
Default : No
Forced : No

Text #1
ID : 7
Format : UTF-8
Codec ID : S_TEXT/UTF8
Codec ID/Info : UTF-8 Plain Text
Duration : 1 h 20 min
Bit rate : 1 b/s
Frame rate : 0.005 FPS
Count of elements : 24
Stream size : 747 Bytes (0%)
Title : Forced
Language : Russian
Default : No
Forced : No

Text #2
ID : 8
Format : UTF-8
Codec ID : S_TEXT/UTF8
Codec ID/Info : UTF-8 Plain Text
Duration : 1 h 32 min
Bit rate : 84 b/s
Frame rate : 0.195 FPS
Count of elements : 1076
Stream size : 57.1 KiB (0%)
Title : Full_feofanio
Language : Russian
Default : No
Forced : No

Text #3
ID : 9
Format : UTF-8
Codec ID : S_TEXT/UTF8
Codec ID/Info : UTF-8 Plain Text
Duration : 56 min 40 s
Bit rate : 0 b/s
Frame rate : 0.001 FPS
Count of elements : 5
Stream size : 141 Bytes (0%)
Title : Forced
Language : English (US)
Default : No
Forced : No

Text #4
ID : 10
Format : UTF-8
Codec ID : S_TEXT/UTF8
Codec ID/Info : UTF-8 Plain Text
Duration : 1 h 32 min
Bit rate : 53 b/s
Frame rate : 0.206 FPS
Count of elements : 1148
Stream size : 36.6 KiB (0%)
Title : Full
Language : English (US)
Default : No
Forced : No

Text #5
ID : 11
Format : UTF-8
Codec ID : S_TEXT/UTF8
Codec ID/Info : UTF-8 Plain Text
Duration : 1 h 33 min
Bit rate : 58 b/s
Frame rate : 0.233 FPS
Count of elements : 1304
Stream size : 40.2 KiB (0%)
Title : SDH
Language : English (US)
Default : No
Forced : No

Menu
00:00:00.000 : en:Chapter 01
00:06:06.574 : en:Chapter 02
00:10:57.990 : en:Chapter 03
00:15:56.622 : en:Chapter 04
00:23:44.798 : en:Chapter 05
00:28:35.672 : en:Chapter 06
00:34:40.203 : en:Chapter 07
00:40:43.858 : en:Chapter 08
00:46:45.093 : en:Chapter 09
00:50:27.190 : en:Chapter 10
00:56:33.139 : en:Chapter 11
01:00:41.679 : en:Chapter 12
01:07:44.727 : en:Chapter 13
01:15:16.053 : en:Chapter 14
01:23:17.325 : en:Chapter 15
01:30:57.076 : en:Chapter 16

Другие фильмы
У данной публикации пока нет комментариев.
Будь первым, оставь своё мнение в комментариях!
Информация
Посетители, находящиеся в группе Гости, не могут оставлять комментарии к данной публикации.
Самый популярный релиз недели
Донаты
Мы в соц. сетях / RSS

Лучшие релизы месяца
Лучшие SD недели
Лучшие 720p недели
Лучшие 1080p недели
Лучшие 4K недели
Вы недавно смотрели
Реклама
Последние комментарии
...

Hargs

Вчера, 10:31

...

павел

6 декабря 2023 02:59

...

Laska020489

28 ноября 2023 23:37

...

-=DoMiNo=-

28 ноября 2023 18:12

...

dexter12

26 ноября 2023 20:29

Реклама