+23

Последнее путешествие «Деметра» / The Last Voyage of the Demeter (2023) BDRip 720p от DoMiNo & селезень | D, P

Информация о фильме
Название: Последнее путешествие «Деметра»
Оригинальное название: The Last Voyage of the Demeter
Жанр: Ужасы
Год выпуска: 2023
Режиссер: Андре Эвредал / Andre Ovredal
В ролях: Кори Хокинс, Эшлинг Франчози, Лиам Каннингэм, Давид Дастмалчян, Крис Уолли, Джон Джон Брионес, Стефан Капичич, Мартин Фурулунд, Николай Николаефф, Вуди Норман

Описание:
6 июля 1897 года русская шхуна «Деметр» отправляется из Болгарии в Лондон. В варнском порту на борт принимают несколько тяжёлых деревянных ящиков с изображением дракона, увидев которое, один из новеньких сразу покидает команду. И не зря — в этом путешествии оставшимся моряками и взятому взамен ушедшего чернокожему врачу придётся столкнуться с самим графом Дракулой, по ночам восстающим из ящика с землёй, чтобы попить свежей крови.

Страна: США, Великобритания, Мальта, Италия, Германия
Студия: Amblin Partners, Dreamworks Pictures, Firebrand Video
Продолжительность: 01:58:39
Перевод 1: Профессиональный (полное дублирование) | Официальный
Перевод 2: Профессиональный (многоголосый закадровый) | HDRezka Studio
Перевод 3: Профессиональный (многоголосый закадровый) | Jaskier
Перевод 4: Профессиональный (многоголосый закадровый) | TVShows
Субтитры: Русские (Forced, full), английские (full, SDH)

Файл
Формат: Matroska
Качество: BDRip 720p [исх.The.Last.Voyage.Of.The.Demeter.2023.USA.Blu-ray.AVC.TrueHD.7.1.Atmos-aCant]
Видео: 1280x536 at 23.976 fps, [email protected], ~2738 kbps
Аудио 1: AC3, 6 ch, 384 Кbps | Русский (DUB)
Аудио 2: AC3, 6 ch, 448 Кbps | Русский (MVO, HDRezka Studio)
Аудио 3: AC3, 6 ch, 384 Кbps | Русский (MVO, Jaskier)
Аудио 4: AC3, 6 ch, 384 Кbps | Русский (MVO, TVShows)
Аудио 5: AC3, 6 ch, 640 Kbps | английский
Формат субтитров: softsub (SRT)

Авторизуйтесь для получения доступа к скачиванию

Нет аккаунта? Регистрация открыта и займёт меньше минуты

Вход Регистрация

x264 [info]: frame I:1169 Avg QP:12.06 size: 71165
x264 [info]: frame P:36968 Avg QP:14.38 size: 30089
x264 [info]: frame B:132551 Avg QP:16.21 size: 9362

General
Unique ID : 305205935905319982756273280289341196205 (0xE59C866E0896AFBD56CD11957E5C47AD)
Complete name : R:The.Last.Voyage.of.the.Demeter.2023.DUB.MVO.BDRip.720p.x264.seleZen.mkv
Format : Matroska
Format version : Version 4
File size : 4.13 GiB
Duration : 1 h 58 min
Overall bit rate : 4 981 kb/s
Frame rate : 23.976 FPS
Movie name : The.Last.Voyage.of.the.Demeter.2023.DUB.MVO.BDRip.720p.x264.seleZen
Encoded date : 2024-02-09 17:51:30 UTC
Writing application : mkvmerge v82.0 ('I'm The President') 64-bit
Writing library : libebml v1.4.5 + libmatroska v1.7.1
Cover : Yes
Attachments : cover.jpg / small_cover.jpg

Video
ID : 1
Format : AVC
Format/Info : Advanced Video Codec
Format profile : [email protected]
Format settings : CABAC / 12 Ref Frames
Format settings, CABAC : Yes
Format settings, Reference : 12 frames
Codec ID : V_MPEG4/ISO/AVC
Duration : 1 h 58 min
Bit rate : 2 738 kb/s
Width : 1 280 pixels
Height : 536 pixels
Display aspect ratio : 2.40:1
Frame rate mode : Constant
Frame rate : 23.976 (24000/1001) FPS
Color space : YUV
Chroma subsampling : 4:2:0
Bit depth : 8 bits
Scan type : Progressive
Bits/(Pixel*Frame) : 0.166
Stream size : 2.27 GiB (55%)
Title : -=DoMiNo=-
Writing library : x264 core 164 r3153 5f84d40
Encoding settings : cabac=1 / ref=12 / deblock=1:-2:-2 / analyse=0x3:0x133 / me=umh / subme=11 / psy=1 / psy_rd=1.00:0.00 / mixed_ref=1 / me_range=48 / chroma_me=1 / trellis=2 / 8x8dct=1 / cqm=0 / deadzone=21,11 / fast_pskip=0 / chroma_qp_offset=-2 / threads=17 / lookahead_threads=4 / sliced_threads=0 / nr=0 / decimate=0 / interlaced=0 / bluray_compat=0 / constrained_intra=0 / bframes=12 / b_pyramid=2 / b_adapt=2 / b_bias=0 / direct=3 / weightb=1 / open_gop=0 / weightp=2 / keyint=240 / keyint_min=24 / scenecut=40 / intra_refresh=0 / rc_lookahead=60 / rc=crf / mbtree=0 / crf=17.3 / qcomp=0.70 / qpmin=0 / qpmax=69 / qpstep=4 / vbv_maxrate=50000 / vbv_bufsize=62500 / crf_max=0.0 / nal_hrd=none / filler=0 / ip_ratio=1.35 / pb_ratio=1.25 / aq=3:0.90
Language : English
Default : Yes
Forced : No

Audio #1
ID : 2
Format : AC-3
Format/Info : Audio Coding 3
Commercial name : Dolby Digital
Codec ID : A_AC3
Duration : 1 h 58 min
Bit rate mode : Constant
Bit rate : 384 kb/s
Channel(s) : 6 channels
Channel layout : L R C LFE Ls Rs
Sampling rate : 48.0 kHz
Frame rate : 31.250 FPS (1536 SPF)
Compression mode : Lossy
Stream size : 326 MiB (8%)
Title : DUB
Language : Russian
Service kind : Complete Main
Default : Yes
Forced : No

Audio #2
ID : 3
Format : AC-3
Format/Info : Audio Coding 3
Commercial name : Dolby Digital
Codec ID : A_AC3
Duration : 1 h 58 min
Bit rate mode : Constant
Bit rate : 448 kb/s
Channel(s) : 6 channels
Channel layout : L R C LFE Ls Rs
Sampling rate : 48.0 kHz
Frame rate : 31.250 FPS (1536 SPF)
Compression mode : Lossy
Stream size : 380 MiB (9%)
Title : HDRezka Studio
Language : Russian
Service kind : Complete Main
Default : No
Forced : No

Audio #3
ID : 4
Format : AC-3
Format/Info : Audio Coding 3
Commercial name : Dolby Digital
Codec ID : A_AC3
Duration : 1 h 58 min
Bit rate mode : Constant
Bit rate : 384 kb/s
Channel(s) : 6 channels
Channel layout : L R C LFE Ls Rs
Sampling rate : 48.0 kHz
Frame rate : 31.250 FPS (1536 SPF)
Compression mode : Lossy
Stream size : 326 MiB (8%)
Title : Jaskier
Language : Russian
Service kind : Complete Main
Default : No
Forced : No

Audio #4
ID : 5
Format : AC-3
Format/Info : Audio Coding 3
Commercial name : Dolby Digital
Codec ID : A_AC3
Duration : 1 h 58 min
Bit rate mode : Constant
Bit rate : 384 kb/s
Channel(s) : 6 channels
Channel layout : L R C LFE Ls Rs
Sampling rate : 48.0 kHz
Frame rate : 31.250 FPS (1536 SPF)
Compression mode : Lossy
Stream size : 326 MiB (8%)
Title : TVShows
Language : Russian
Service kind : Complete Main
Default : No
Forced : No

Audio #5
ID : 6
Format : AC-3
Format/Info : Audio Coding 3
Commercial name : Dolby Digital
Codec ID : A_AC3
Duration : 1 h 58 min
Bit rate mode : Constant
Bit rate : 640 kb/s
Channel(s) : 6 channels
Channel layout : L R C LFE Ls Rs
Sampling rate : 48.0 kHz
Frame rate : 31.250 FPS (1536 SPF)
Compression mode : Lossy
Stream size : 543 MiB (13%)
Title : Original
Language : English
Service kind : Complete Main
Default : No
Forced : No

Text #1
ID : 7
Format : UTF-8
Codec ID : S_TEXT/UTF8
Codec ID/Info : UTF-8 Plain Text
Duration : 1 h 17 min
Bit rate : 2 b/s
Frame rate : 0.004 FPS
Count of elements : 19
Stream size : 1.20 KiB (0%)
Title : Forced
Language : Russian
Default : No
Forced : No

Text #2
ID : 8
Format : UTF-8
Codec ID : S_TEXT/UTF8
Codec ID/Info : UTF-8 Plain Text
Duration : 1 h 48 min
Bit rate : 64 b/s
Frame rate : 0.162 FPS
Count of elements : 1053
Stream size : 51.3 KiB (0%)
Title : Full
Language : Russian
Default : No
Forced : No

Text #3
ID : 9
Format : UTF-8
Codec ID : S_TEXT/UTF8
Codec ID/Info : UTF-8 Plain Text
Duration : 1 h 47 min
Bit rate : 36 b/s
Frame rate : 0.164 FPS
Count of elements : 1055
Stream size : 29.0 KiB (0%)
Title : Full
Language : English
Default : No
Forced : No

Text #4
ID : 10
Format : UTF-8
Codec ID : S_TEXT/UTF8
Codec ID/Info : UTF-8 Plain Text
Duration : 1 h 58 min
Bit rate : 43 b/s
Frame rate : 0.214 FPS
Count of elements : 1518
Stream size : 37.8 KiB (0%)
Title : SDH
Language : English
Default : No
Forced : No

Menu
00:00:00.000 : Chapter 1
00:04:09.499 : Chapter 2
00:08:39.477 : Chapter 3
00:12:22.116 : Chapter 4
00:17:12.406 : Chapter 5
00:24:20.542 : Chapter 6
00:30:20.568 : Chapter 7
00:36:52.293 : Chapter 8
00:43:09.962 : Chapter 9
00:47:36.937 : Chapter 10
00:52:56.631 : Chapter 11
01:00:51.522 : Chapter 12
01:05:38.142 : Chapter 13
01:10:35.105 : Chapter 14
01:17:41.948 : Chapter 15
01:23:53.194 : Chapter 16
01:30:24.001 : Chapter 17
01:38:28.903 : Chapter 18
01:44:01.276 : Chapter 19
01:49:23.265 : Chapter 20
01:58:38.861 : Chapter 21

Другие фильмы
У данной публикации пока нет комментариев.
Будь первым, оставь своё мнение в комментариях!
Информация
Посетители, находящиеся в группе Гости, не могут оставлять комментарии к данной публикации.
Самый популярный релиз недели
Донаты
Мы в соц. сетях / RSS

Лучшие релизы месяца
Лучшие SD недели
Лучшие 720p недели
Лучшие 1080p недели
Лучшие 4K недели
Вы недавно смотрели
Реклама
Последние комментарии
...

ruslan6971

21 апреля 2024 19:59

...

Tony1984

20 апреля 2024 14:36

...

bolonka123

19 апреля 2024 10:05

...

Sergunka

17 апреля 2024 23:31

...

-=DoMiNo=-

17 апреля 2024 13:52

Реклама