+16

Индиана Джонс и колесо судьбы / Indiana Jones and the Dial of Destiny (2023) BDRip 1080p от селезень | D, P, A

Информация о фильме
Название: Индиана Джонс и колесо судьбы
Оригинальное название: Indiana Jones and the Dial of Destiny
Год выхода: 2023
Жанр: боевик, приключения
Режиссер: Джеймс Мэнголд
В ролях: Харрисон Форд, Фиби Уоллер-Бридж, Мадс Миккельсен, Антонио Бандерас, Джон Рис-Дэвис, Тоби Джонс, Бойд Холбрук, Карен Аллен, Шонетт Рене Уилсон, Томас Кречман

О фильме: Неувядающий авантюрист и пытливый археолог-исследователь по-прежнему в седле. На этот раз ему придётся столкнуться с непростой задачей, которую решить на раз-два вряд ли получится. Но Индиана Джонс не даст слабину и не отступит при виде даже самой безнадёжной ситуации.

Страна: США
Студия: Amblin Entertainment, Lucasfilm Ltd., Paramount Pictures
Продолжительность: 02:34:28
Перевод(ы):
Перевод 1: Дублированный (официальный) | MovieDalen
Перевод 2: Дублированный (неофициальный) | Red Head Sound
Перевод 3: Дублированный (неофициальный) | Flarrow Films
Перевод 4: Дублированный (неофициальный) | HotVoice41
Перевод 5: Профессиональный многоголосый | TVShows
Перевод 6: Профессиональный многоголосый | LostFilm
Перевод 7: Авторский | Ю. Сербин


Качество: BDRip 1080p
Видео: MPEG-4 AVC, 1920x804, 9192 Kbit/s, 23.976 fps
Аудио #01: 48 kHz, AC3, 5.1, 256 Kbps | Дублированный | MovieDalen | RUS |Индиана Джонс и колесо судьбы / Indiana Jones and the Dial of Destiny (2023) BDRip 1080p от селезень | D, P, A
Аудио #02: 48 kHz, AC3, 5.1, 640 Kbps | Дублированный | Red Head Sound | RUS |
Аудио #03: 48 kHz, AC3, 5.1, 640 Kbps | Дублированный | Flarrow Films | RUS |
Аудио #04: 48 kHz, E-AC3, 5.1, 768 Kbps | Дублированный | HotVoice41 | RUS |
Аудио #05: 48 kHz, AC3, 5.1, 384 Kbps | Профессиональный многоголосый | TVShows | RUS |
Аудио #06: 48 kHz, AC3, 2.0, 384 Kbps | Профессиональный многоголосый | LostFilm | RUS |
Аудио #07: 48 kHz, AC3, 5.1, 448 Kbps | Авторский | Ю. Сербин | RUS |
Аудио #08: 48 kHz, E-AC3, 5.1, 256 Kbps | Дублированный | UKR |
Аудио #09: 48 kHz, AC3, 5.1, 640 Kbps | Оригинал | ENG |
Субтитры: Русские (2 x Forced, 2 x full), украинские (Forced, full), английские

Индиана Джонс и колесо судьбы / Indiana Jones and the Dial of Destiny (2023) BDRip 1080p от селезень | D, P, A

Авторизуйтесь для получения доступа к скачиванию

Нет аккаунта? Регистрация открыта и займёт меньше минуты

Вход Регистрация

General
Unique ID : 66285847586324716120676160216015868552 (0x31DE309BAF44B5AD856B4C3A01409288)
Complete name : H:\VideoH\Indiana.Jones.and.the.Dial.of.Destiny.2023.BDRip.1080p.seleZen.mkv
Format : Matroska
Format version : Version 4
File size : 14.7 GiB
Duration : 2 h 34 min
Overall bit rate : 13.6 Mb/s
Frame rate : 23.976 FPS
Movie name : Indiana Jones and the Dial of Destiny (2023) from seleZen
Encoded date : 2023-11-21 03:33:47 UTC
Writing application : mkvmerge v79.0 ('Funeral Pyres') 64-bit
Writing library : libebml v1.4.4 + libmatroska v1.7.1

Video
ID : 1
Format : AVC
Format/Info : Advanced Video Codec
Format profile : [email protected]
Format settings : CABAC / 5 Ref Frames
Format settings, CABAC : Yes
Format settings, Reference : 5 frames
Codec ID : V_MPEG4/ISO/AVC
Duration : 2 h 34 min
Bit rate : 9 192 kb/s
Width : 1 920 pixels
Height : 804 pixels
Display aspect ratio : 2.40:1
Frame rate mode : Constant
Frame rate : 23.976 (24000/1001) FPS
Color space : YUV
Chroma subsampling : 4:2:0
Bit depth : 8 bits
Scan type : Progressive
Bits/(Pixel*Frame) : 0.248
Stream size : 9.92 GiB (68%)
Writing library : x264 core 164 r3164 seleZen
Encoding settings : cabac=1 / ref=5 / deblock=1:-2:-2 / analyse=0x3:0x133 / me=umh / subme=10 / psy=1 / psy_rd=1.01:0.02 / mixed_ref=1 / me_range=32 / chroma_me=1 / trellis=2 / 8x8dct=1 / cqm=0 / deadzone=21,11 / fast_pskip=0 / chroma_qp_offset=-3 / threads=25 / lookahead_threads=4 / sliced_threads=0 / nr=0 / decimate=0 / interlaced=0 / bluray_compat=0 / constrained_intra=0 / bframes=9 / b_pyramid=2 / b_adapt=2 / b_bias=0 / direct=1 / weightb=1 / open_gop=0 / weightp=2 / keyint=240 / keyint_min=23 / scenecut=40 / intra_refresh=0 / rc_lookahead=60 / rc=crf / mbtree=0 / crf=17.6 / qcomp=0.60 / qpmin=0 / qpmax=51 / qpstep=4 / vbv_maxrate=50000 / vbv_bufsize=62500 / crf_max=0.0 / nal_hrd=none / filler=0 / ip_ratio=1.40 / pb_ratio=1.30 / aq=3:0.80
Language : English
Default : Yes
Forced : No

Audio #1
ID : 2
Format : AC-3
Format/Info : Audio Coding 3
Commercial name : Dolby Digital
Codec ID : A_AC3
Duration : 2 h 34 min
Bit rate mode : Constant
Bit rate : 256 kb/s
Channel(s) : 6 channels
Channel layout : L R C LFE Ls Rs
Sampling rate : 44.1 kHz
Frame rate : 28.711 FPS (1536 SPF)
Compression mode : Lossy
Stream size : 283 MiB (2%)
Title : Dub_MovieDalen
Language : Russian
Service kind : Complete Main
Default : Yes
Forced : No

Audio #2
ID : 3
Format : AC-3
Format/Info : Audio Coding 3
Commercial name : Dolby Digital
Codec ID : A_AC3
Duration : 2 h 34 min
Bit rate mode : Constant
Bit rate : 640 kb/s
Channel(s) : 6 channels
Channel layout : L R C LFE Ls Rs
Sampling rate : 48.0 kHz
Frame rate : 31.250 FPS (1536 SPF)
Compression mode : Lossy
Stream size : 707 MiB (5%)
Title : Dub_Red Head Sound
Language : Russian
Service kind : Complete Main
Default : No
Forced : No

Audio #3
ID : 4
Format : AC-3
Format/Info : Audio Coding 3
Commercial name : Dolby Digital
Codec ID : A_AC3
Duration : 2 h 34 min
Bit rate mode : Constant
Bit rate : 640 kb/s
Channel(s) : 6 channels
Channel layout : L R C LFE Ls Rs
Sampling rate : 48.0 kHz
Frame rate : 31.250 FPS (1536 SPF)
Compression mode : Lossy
Stream size : 707 MiB (5%)
Title : Dub_Flarrow Films
Language : Russian
Service kind : Complete Main
Default : No
Forced : No

Audio #4
ID : 5
Format : E-AC-3
Format/Info : Enhanced AC-3
Commercial name : Dolby Digital Plus
Codec ID : A_EAC3
Duration : 2 h 34 min
Bit rate mode : Constant
Bit rate : 768 kb/s
Channel(s) : 6 channels
Channel layout : L R C LFE Ls Rs
Sampling rate : 48.0 kHz
Frame rate : 31.250 FPS (1536 SPF)
Compression mode : Lossy
Stream size : 849 MiB (6%)
Title : Dub_HotVoice41
Language : Russian
Service kind : Complete Main
Default : No
Forced : No

Audio #5
ID : 6
Format : AC-3
Format/Info : Audio Coding 3
Commercial name : Dolby Digital
Codec ID : A_AC3
Duration : 2 h 34 min
Bit rate mode : Constant
Bit rate : 384 kb/s
Channel(s) : 6 channels
Channel layout : L R C LFE Ls Rs
Sampling rate : 48.0 kHz
Frame rate : 31.250 FPS (1536 SPF)
Compression mode : Lossy
Stream size : 424 MiB (3%)
Title : MVO_TVShows
Language : Russian
Service kind : Complete Main
Default : No
Forced : No

Audio #6
ID : 7
Format : AC-3
Format/Info : Audio Coding 3
Commercial name : Dolby Digital
Codec ID : A_AC3
Duration : 2 h 34 min
Bit rate mode : Constant
Bit rate : 384 kb/s
Channel(s) : 2 channels
Channel layout : L R
Sampling rate : 48.0 kHz
Frame rate : 31.250 FPS (1536 SPF)
Compression mode : Lossy
Stream size : 424 MiB (3%)
Title : MVO_LostFilm
Language : Russian
Service kind : Complete Main
Default : No
Forced : No

Audio #7
ID : 8
Format : AC-3
Format/Info : Audio Coding 3
Commercial name : Dolby Digital
Codec ID : A_AC3
Duration : 2 h 34 min
Bit rate mode : Constant
Bit rate : 448 kb/s
Channel(s) : 6 channels
Channel layout : L R C LFE Ls Rs
Sampling rate : 48.0 kHz
Frame rate : 31.250 FPS (1536 SPF)
Compression mode : Lossy
Stream size : 495 MiB (3%)
Title : AVO_Serbin
Language : Russian
Service kind : Complete Main
Default : No
Forced : No

Audio #8
ID : 9
Format : E-AC-3
Format/Info : Enhanced AC-3
Commercial name : Dolby Digital Plus
Codec ID : A_EAC3
Duration : 2 h 34 min
Bit rate mode : Constant
Bit rate : 256 kb/s
Channel(s) : 6 channels
Channel layout : L R C LFE Ls Rs
Sampling rate : 48.0 kHz
Frame rate : 31.250 FPS (1536 SPF)
Compression mode : Lossy
Stream size : 283 MiB (2%)
Title : Dub_LeDoyen
Language : Ukrainian
Service kind : Complete Main
Default : No
Forced : No

Audio #9
ID : 10
Format : AC-3
Format/Info : Audio Coding 3
Commercial name : Dolby Digital
Codec ID : A_AC3
Duration : 2 h 34 min
Bit rate mode : Constant
Bit rate : 640 kb/s
Channel(s) : 6 channels
Channel layout : L R C LFE Ls Rs
Sampling rate : 48.0 kHz
Frame rate : 31.250 FPS (1536 SPF)
Compression mode : Lossy
Stream size : 707 MiB (5%)
Title : Original
Language : English
Service kind : Complete Main
Default : No
Forced : No

Text #1
ID : 11
Format : UTF-8
Codec ID : S_TEXT/UTF8
Codec ID/Info : UTF-8 Plain Text
Duration : 2 h 16 min
Bit rate : 4 b/s
Frame rate : 0.018 FPS
Count of elements : 150
Stream size : 4.97 KiB (0%)
Title : Forced
Language : Russian
Default : No
Forced : No

Text #2
ID : 12
Format : UTF-8
Codec ID : S_TEXT/UTF8
Codec ID/Info : UTF-8 Plain Text
Duration : 2 h 23 min
Bit rate : 5 b/s
Frame rate : 0.016 FPS
Count of elements : 141
Stream size : 5.92 KiB (0%)
Title : Forced _HotVoice41
Language : Russian
Default : No
Forced : No

Text #3
ID : 13
Format : UTF-8
Codec ID : S_TEXT/UTF8
Codec ID/Info : UTF-8 Plain Text
Duration : 2 h 33 min
Bit rate : 58 b/s
Frame rate : 0.190 FPS
Count of elements : 1750
Stream size : 65.4 KiB (0%)
Title : Full
Language : Russian
Default : No
Forced : No

Text #4
ID : 14
Format : UTF-8
Codec ID : S_TEXT/UTF8
Codec ID/Info : UTF-8 Plain Text
Duration : 2 h 22 min
Bit rate : 61 b/s
Frame rate : 0.200 FPS
Count of elements : 1713
Stream size : 64.6 KiB (0%)
Title : Full_FOCS
Language : Russian
Default : No
Forced : No

Text #5
ID : 15
Format : UTF-8
Codec ID : S_TEXT/UTF8
Codec ID/Info : UTF-8 Plain Text
Duration : 2 h 16 min
Bit rate : 5 b/s
Frame rate : 0.019 FPS
Count of elements : 153
Stream size : 5.04 KiB (0%)
Title : Forced
Language : Ukrainian
Default : No
Forced : No

Text #6
ID : 16
Format : UTF-8
Codec ID : S_TEXT/UTF8
Codec ID/Info : UTF-8 Plain Text
Duration : 2 h 33 min
Bit rate : 58 b/s
Frame rate : 0.190 FPS
Count of elements : 1751
Stream size : 65.6 KiB (0%)
Title : Full
Language : Ukrainian
Default : No
Forced : No

Text #7
ID : 17
Format : UTF-8
Codec ID : S_TEXT/UTF8
Codec ID/Info : UTF-8 Plain Text
Duration : 2 h 16 min
Bit rate : 2 b/s
Frame rate : 0.017 FPS
Count of elements : 141
Stream size : 2.77 KiB (0%)
Title : Forced
Language : English
Default : No
Forced : No

Text #8
ID : 18
Format : UTF-8
Codec ID : S_TEXT/UTF8
Codec ID/Info : UTF-8 Plain Text
Duration : 2 h 22 min
Bit rate : 41 b/s
Frame rate : 0.204 FPS
Count of elements : 1739
Stream size : 42.9 KiB (0%)
Title : Full
Language : English
Default : No
Forced : No

Text #9
ID : 19
Format : UTF-8
Codec ID : S_TEXT/UTF8
Codec ID/Info : UTF-8 Plain Text
Duration : 2 h 23 min
Bit rate : 54 b/s
Frame rate : 0.273 FPS
Count of elements : 2351
Stream size : 57.4 KiB (0%)
Title : SDH
Language : English
Default : No
Forced : No

Menu
00:00:00.000 : en:Chapter 01
00:05:03.344 : en:Chapter 02
00:08:45.024 : en:Chapter 03
00:14:42.798 : en:Chapter 04
00:21:30.914 : en:Chapter 05
00:24:10.365 : en:Chapter 06
00:27:01.620 : en:Chapter 07
00:33:06.693 : en:Chapter 08
00:40:32.972 : en:Chapter 09
00:46:22.946 : en:Chapter 10
00:51:26.666 : en:Chapter 11
00:54:28.807 : en:Chapter 12
00:59:33.987 : en:Chapter 13
01:02:03.302 : en:Chapter 14
01:08:56.549 : en:Chapter 15
01:13:32.116 : en:Chapter 16
01:20:09.137 : en:Chapter 17
01:26:07.162 : en:Chapter 18
01:34:24.533 : en:Chapter 19
01:36:46.175 : en:Chapter 20
01:40:40.159 : en:Chapter 21
01:48:04.478 : en:Chapter 22
01:55:35.386 : en:Chapter 23
02:02:19.790 : en:Chapter 24
02:05:13.130 : en:Chapter 25
02:12:30.817 : en:Chapter 26
02:17:34.871 : en:Chapter 27
02:23:22.594 : en:Chapter 28

Другие фильмы
У данной публикации пока нет комментариев.
Будь первым, оставь своё мнение в комментариях!
Информация
Посетители, находящиеся в группе Гости, не могут оставлять комментарии к данной публикации.
Самый популярный релиз недели
Донаты
Мы в соц. сетях / RSS

Лучшие релизы месяца
Лучшие SD недели
Лучшие 720p недели
Лучшие 1080p недели
Лучшие 4K недели
Вы недавно смотрели
Реклама
Последние комментарии
...

korelov

23 февраля 2024 14:35

...

Desol

21 февраля 2024 00:28

...

diabloq

20 февраля 2024 14:17

...

slightlymad

17 февраля 2024 21:01

...

takezi

15 февраля 2024 22:10

Реклама