+5

М3ган / M3GAN (2022) UHD WEB-DL 2160p от селезень | 4K | HDR | Dolby Vision Profile 8 | Лицензия

Информация о фильме
Название: М3ГАН
Оригинальное название: M3GAN
Год выхода: 2022
Жанр: Ужасы, Фантастика, триллер
Режиссер: Джерард Джонстоун
В ролях: Эллисон Уильямс, Вайолет Макгроу, Эми Дональд, Дженна Дэвис, Ронни Чиэн, Брайан Джордан Альварез, Джен Браун, Стефан Гарно, Лори Дунги, Эми Ашервуд

О фильме: 10-летняя Кэди вместе с папой и мамой попадает в автоаварию. Родители погибают, а девочка отправляется жить к тёте Джемме - сотруднице корпорации по производству технологичных игрушек. Не зная, как справиться с внезапно свалившейся на неё ответственностью, и не особо желая тратить на племянницу время, Джемма знакомит Кэди с экспериментальной куклой-андроидом М3ган, обладающей искусственным интеллектом. Первостепенной задачей новой «подружки» является защита ребёнка от всевозможного физического и морального вреда, и М3ган понимает это слишком буквально.

Страна: США, Новая Зеландия
Студия: Atomic Monster, Blumhouse Productions, Divide / Conquer, New Zealand Film Commission, Universal Pictures
Продолжительность: 01:41:56
Перевод: Дублированный | Лицензия
Субтитры: Русские (Forced, 2 x full), украинские (Full), английские

Файл
Формат: Matroska
Качество: WEB-DL 2160p
Видео: 3840x2160 at 23.976 fps, MPEG-H HEVC, ~24300 kbps
Аудио 1: AC3, 6 ch, ~384 kbps - | Русский | М3ган / M3GAN (2022) UHD WEB-DL 2160p от селезень | 4K | HDR | Dolby Vision Profile 8 | Лицензия | Лицензия
Аудио 3: E-AC3+Atmos, 6 ch, ~768 kbps - | Английский | | Original
Формат субтитров: softsub (SRT)

М3ган / M3GAN (2022) UHD WEB-DL 2160p от селезень | 4K | HDR | Dolby Vision Profile 8 | Лицензия

Авторизуйтесь для получения доступа к скачиванию

Нет аккаунта? Регистрация открыта и займёт меньше минуты

Вход Регистрация

General
Unique ID : 292037090299731126926004703163852201599 (0xDBB44C36975F733537814775EC331E7F)
Complete name : E:\VideoE\M3GAN.2022.D.WEB-DL.2160p.HDR.DVP8.seleZen.mkv
Format : Matroska
Format version : Version 4
File size : 18.1 GiB
Duration : 1 h 41 min
Overall bit rate : 25.5 Mb/s
Frame rate : 23.976 FPS
Movie name : M3GAN 2022 from seleZen
Encoded date : 2023-05-25 13:53:10 UTC
Writing application : mkvmerge v59.0.0 ('Shining Star') 64-bit
Writing library : libebml v1.4.2 + libmatroska v1.6.4

Video
ID : 1
Format : HEVC
Format/Info : High Efficiency Video Coding
Format profile : Main 10@L5@High
HDR format : Dolby Vision, Version 1.0, dvhe.08.06, BL+RPU, HDR10 compatible / SMPTE ST 2086, HDR10 compatible
Codec ID : V_MPEGH/ISO/HEVC
Duration : 1 h 41 min
Bit rate : 24.3 Mb/s
Width : 3 840 pixels
Height : 2 160 pixels
Display aspect ratio : 16:9
Frame rate mode : Constant
Frame rate : 23.976 (24000/1001) FPS
Color space : YUV
Chroma subsampling : 4:2:0 (Type 2)
Bit depth : 10 bits
Bits/(Pixel*Frame) : 0.122
Stream size : 17.3 GiB (95%)
Language : English
Default : Yes
Forced : No
Color range : Limited
Color primaries : BT.2020
Transfer characteristics : PQ
Matrix coefficients : BT.2020 non-constant
Mastering display color pri : BT.2020
Mastering display luminance : min: 0.0500 cd/m2, max: 1000 cd/m2
Maximum Content Light Level : 629 cd/m2
Maximum Frame-Average Light : 164 cd/m2

Audio #1
ID : 2
Format : AC-3
Format/Info : Audio Coding 3
Commercial name : Dolby Digital
Codec ID : A_AC3
Duration : 1 h 41 min
Bit rate mode : Constant
Bit rate : 384 kb/s
Channel(s) : 6 channels
Channel layout : L R C LFE Ls Rs
Sampling rate : 48.0 kHz
Frame rate : 31.250 FPS (1536 SPF)
Compression mode : Lossy
Stream size : 280 MiB (2%)
Title : Dub [Official]
Language : Russian
Service kind : Complete Main
Default : Yes
Forced : Yes

Audio #2
ID : 3
Format : E-AC-3 JOC
Format/Info : Enhanced AC-3 with Joint Object Coding
Commercial name : Dolby Digital Plus with Dolby Atmos
Codec ID : A_EAC3
Duration : 1 h 41 min
Bit rate mode : Constant
Bit rate : 768 kb/s
Channel(s) : 6 channels
Channel layout : L R C LFE Ls Rs
Sampling rate : 48.0 kHz
Frame rate : 31.250 FPS (1536 SPF)
Compression mode : Lossy
Stream size : 560 MiB (3%)
Title : Original
Language : English
Service kind : Complete Main
Default : No
Forced : No
Complexity index : 16
Number of dynamic objects : 15
Bed channel count : 1 channel
Bed channel configuration : LFE

Text #1
ID : 4
Format : UTF-8
Codec ID : S_TEXT/UTF8
Codec ID/Info : UTF-8 Plain Text
Duration : 1 h 17 min
Bit rate : 2 b/s
Frame rate : 0.007 FPS
Count of elements : 33
Stream size : 1.55 KiB (0%)
Title : Forced [Official]
Language : Russian
Default : Yes
Forced : Yes

Text #2
ID : 5
Format : UTF-8
Codec ID : S_TEXT/UTF8
Codec ID/Info : UTF-8 Plain Text
Duration : 1 h 40 min
Bit rate : 102 b/s
Frame rate : 0.222 FPS
Count of elements : 1343
Stream size : 75.5 KiB (0%)
Title : Full [Official]
Language : Russian
Default : No
Forced : No

Text #3
ID : 6
Format : UTF-8
Codec ID : S_TEXT/UTF8
Codec ID/Info : UTF-8 Plain Text
Duration : 1 h 40 min
Bit rate : 96 b/s
Frame rate : 0.223 FPS
Count of elements : 1345
Stream size : 71.1 KiB (0%)
Title : Full [Official]
Language : Ukrainian
Default : No
Forced : No

Text #4
ID : 7
Format : UTF-8
Codec ID : S_TEXT/UTF8
Codec ID/Info : UTF-8 Plain Text
Duration : 1 h 32 min
Bit rate : 118 b/s
Frame rate : 0.196 FPS
Count of elements : 1092
Stream size : 80.7 KiB (0%)
Title : Full v.2
Language : Russian
Default : No
Forced : No

Text #5
ID : 8
Format : UTF-8
Codec ID : S_TEXT/UTF8
Codec ID/Info : UTF-8 Plain Text
Duration : 1 h 41 min
Bit rate : 69 b/s
Frame rate : 0.271 FPS
Count of elements : 1648
Stream size : 51.4 KiB (0%)
Title : Full
Language : English
Default : No
Forced : No

Text #6
ID : 9
Format : UTF-8
Codec ID : S_TEXT/UTF8
Codec ID/Info : UTF-8 Plain Text
Duration : 1 h 41 min
Bit rate : 76 b/s
Frame rate : 0.306 FPS
Count of elements : 1870
Stream size : 57.4 KiB (0%)
Title : SDH
Language : English
Default : No
Forced : No

Menu
00:00:00.930 : en:Chapter 01
00:03:56.499 : en:Chapter 02
00:10:43.781 : en:Chapter 03
00:14:51.153 : en:Chapter 04
00:19:45.322 : en:Chapter 05
00:24:07.375 : en:Chapter 06
00:28:17.834 : en:Chapter 07
00:33:20.261 : en:Chapter 08
00:39:20.287 : en:Chapter 09
00:45:09.719 : en:Chapter 10
00:50:48.182 : en:Chapter 11
00:57:36.299 : en:Chapter 12
01:01:04.798 : en:Chapter 13
01:05:37.654 : en:Chapter 14
01:09:42.024 : en:Chapter 15
01:15:50.600 : en:Chapter 16
01:18:25.296 : en:Chapter 17
01:21:32.692 : en:Chapter 18
01:29:07.479 : en:Chapter 19
01:33:52.264 : en:Chapter 20

Другие фильмы
У данной публикации пока нет комментариев.
Будь первым, оставь своё мнение в комментариях!
Информация
Посетители, находящиеся в группе Гости, не могут оставлять комментарии к данной публикации.
Самый популярный релиз недели
Донаты
Мы в соц. сетях / RSS

Лучшие релизы месяца
Лучшие SD недели
Лучшие 720p недели
Лучшие 1080p недели
Лучшие 4K недели
Вы недавно смотрели
Реклама
Последние комментарии
...

Bonzo

14 июня 2024 14:52

...

rmzshka

13 июня 2024 17:48

...

rmzshka

13 июня 2024 12:24

...

LisNick

13 июня 2024 08:45

...

SkySpirit

8 июня 2024 19:54

Реклама