+18

Восстание зловещих мертвецов / Evil Dead Rise (2023) WEB-DL 1080p от селезень | D, P, A

Информация о фильме
Название: Восстание зловещих мертвецов
Оригинальное название: Evil Dead Rise
Год выхода: 2023
Жанр: ужасы
Режиссер: Ли Кронин
В ролях: Алисса Сазерленд, Лили Салливан, Габриэль Экхолс, Моргана Дейвис, Нелл Фишер, Мирабай Пиз, Ричард Краучли, Анна-Мари Томас, Ной Пол, Билли Рейнольдс-Маккарти и др.

Описание:
Бет приезжает в Лос-Анджелес, чтобы навестить свою старшую сестру Элли — мать-одиночку, воспитывающую троих детей. Когда Элли обнаруживает в подвале старинную книгу, оказавшуюся Некрономиконом, это становится началом самого безумного кошмара в их жизни. Фильм ужасов «Восстание зловещих мертвецов» стал пятым и заключительным в классической франшизе «Зловещие мертвецы».

Страна: США, Новая Зеландия, Ирландия
Продолжительность: 01:36:25
Перевод 1: Дублированный | Bravo Records Georgia / Movie Dubbing
Перевод 2: Профессиональный (многоголосый, закадровый) | TVShows
Перевод 3: Профессиональный (многоголосый, закадровый) | HDRezka Studio
Перевод 4: Авторский (одноголосый, закадровый) | Д. Есарев 18 +
Субтитры: Русские (2 x Forced, full), украинские (Full), английские (full, SDH)

Файл
Формат: Matroska
Качество: WEB-DL 1080p
Видео: 1920x1080 at 23.976 fps, [email protected], ~7934 kbps
Аудио 1: AC3, 6 ch, ~384 kbps - | Русский | Восстание зловещих мертвецов / Evil Dead Rise (2023) WEB-DL 1080p от селезень | D, P, A | Bravo Records Georgia / Movie Dubbing
Аудио 2: E-AC3+Atmos, 6 ch, ~768 kbps - | Русский | | TVShows
Аудио 3: AC3, 6 ch, ~448 kbps - | Русский | | TVShows
Аудио 4: AC3, 6 ch, ~448 kbps - | Русский | | HDRezka Studio
Аудио 5: AC3, 6 ch, ~384 kbps - | Русский | | Д. Есарев
Аудио 6: E-AC3+Atmos, 6 ch, ~768 kbps - | Английский | | Original
Формат субтитров: softsub (SRT)

Восстание зловещих мертвецов / Evil Dead Rise (2023) WEB-DL 1080p от селезень | D, P, A

Авторизуйтесь для получения доступа к скачиванию

Нет аккаунта? Регистрация открыта и займёт меньше минуты

Вход Регистрация

General
Unique ID : 206365873126793367978496810614935565101 (0x9B409F17B45554A96AFF29A70C48B32D)
Complete name : D:VideoEvil.Dead.Rise.2023.D.MVO.AVO.WEB-DL.1080p.seleZen.mkv
Format : Matroska
Format version : Version 4
File size : 7.50 GiB
Duration : 1 h 36 min
Overall bit rate : 11.1 Mb/s
Frame rate : 23.976 FPS
Movie name : Evil Dead Rise 2023 from seleZen
Encoded date : 2023-05-22 13:50:44 UTC
Writing application : mkvmerge v59.0.0 ('Shining Star') 64-bit
Writing library : libebml v1.4.2 + libmatroska v1.6.4

Video
ID : 1
Format : AVC
Format/Info : Advanced Video Codec
Format profile : High@L4
Format settings : CABAC / 4 Ref Frames
Format settings, CABAC : Yes
Format settings, Reference : 4 frames
Codec ID : V_MPEG4/ISO/AVC
Duration : 1 h 36 min
Bit rate : 7 934 kb/s
Width : 1 920 pixels
Height : 1 080 pixels
Display aspect ratio : 16:9
Frame rate mode : Constant
Frame rate : 23.976 (24000/1001) FPS
Color space : YUV
Chroma subsampling : 4:2:0
Bit depth : 8 bits
Scan type : Progressive
Bits/(Pixel*Frame) : 0.160
Stream size : 5.34 GiB (71%)
Language : English
Default : Yes
Forced : No
Color range : Limited
Color primaries : BT.709
Transfer characteristics : BT.709
Matrix coefficients : BT.709

Audio #1
ID : 2
Format : AC-3
Format/Info : Audio Coding 3
Commercial name : Dolby Digital
Codec ID : A_AC3
Duration : 1 h 36 min
Bit rate mode : Constant
Bit rate : 384 kb/s
Channel(s) : 6 channels
Channel layout : L R C LFE Ls Rs
Sampling rate : 48.0 kHz
Frame rate : 31.250 FPS (1536 SPF)
Compression mode : Lossy
Stream size : 265 MiB (3%)
Title : Dub
Language : Russian
Service kind : Complete Main
Default : Yes
Forced : Yes

Audio #2
ID : 3
Format : E-AC-3 JOC
Format/Info : Enhanced AC-3 with Joint Object Coding
Commercial name : Dolby Digital Plus with Dolby Atmos
Codec ID : A_EAC3
Duration : 1 h 36 min
Bit rate mode : Constant
Bit rate : 768 kb/s
Channel(s) : 6 channels
Channel layout : L R C LFE Ls Rs
Sampling rate : 48.0 kHz
Frame rate : 31.250 FPS (1536 SPF)
Compression mode : Lossy
Stream size : 530 MiB (7%)
Title : MVO [TVShows]
Language : Russian
Service kind : Complete Main
Default : No
Forced : No
Complexity index : 16
Number of dynamic objects : 15
Bed channel count : 1 channel
Bed channel configuration : LFE

Audio #3
ID : 4
Format : AC-3
Format/Info : Audio Coding 3
Commercial name : Dolby Digital
Codec ID : A_AC3
Duration : 1 h 36 min
Bit rate mode : Constant
Bit rate : 448 kb/s
Channel(s) : 6 channels
Channel layout : L R C LFE Ls Rs
Sampling rate : 48.0 kHz
Frame rate : 31.250 FPS (1536 SPF)
Compression mode : Lossy
Stream size : 309 MiB (4%)
Title : MVO [TVShows]
Language : Russian
Service kind : Complete Main
Default : No
Forced : No

Audio #4
ID : 5
Format : AC-3
Format/Info : Audio Coding 3
Commercial name : Dolby Digital
Codec ID : A_AC3
Duration : 1 h 36 min
Bit rate mode : Constant
Bit rate : 448 kb/s
Channel(s) : 6 channels
Channel layout : L R C LFE Ls Rs
Sampling rate : 48.0 kHz
Frame rate : 31.250 FPS (1536 SPF)
Compression mode : Lossy
Stream size : 309 MiB (4%)
Title : MVO [HDRezka Studio]
Language : Russian
Service kind : Complete Main
Default : Yes
Forced : Yes

Audio #5
ID : 6
Format : AC-3
Format/Info : Audio Coding 3
Commercial name : Dolby Digital
Codec ID : A_AC3
Duration : 1 h 36 min
Bit rate mode : Constant
Bit rate : 384 kb/s
Channel(s) : 6 channels
Channel layout : L R C LFE Ls Rs
Sampling rate : 48.0 kHz
Frame rate : 31.250 FPS (1536 SPF)
Compression mode : Lossy
Stream size : 265 MiB (3%)
Title : AVO [Yesarev]
Language : Russian
Service kind : Complete Main
Default : No
Forced : No

Audio #6
ID : 7
Format : E-AC-3 JOC
Format/Info : Enhanced AC-3 with Joint Object Coding
Commercial name : Dolby Digital Plus with Dolby Atmos
Codec ID : A_EAC3
Duration : 1 h 36 min
Bit rate mode : Constant
Bit rate : 768 kb/s
Channel(s) : 6 channels
Channel layout : L R C LFE Ls Rs
Sampling rate : 48.0 kHz
Frame rate : 31.250 FPS (1536 SPF)
Compression mode : Lossy
Stream size : 530 MiB (7%)
Title : Original
Language : English
Service kind : Complete Main
Default : No
Forced : No
Complexity index : 16
Number of dynamic objects : 15
Bed channel count : 1 channel
Bed channel configuration : LFE

Text #1
ID : 8
Format : UTF-8
Codec ID : S_TEXT/UTF8
Codec ID/Info : UTF-8 Plain Text
Duration : 1 h 0 min
Bit rate : 1 b/s
Frame rate : 0.004 FPS
Count of elements : 16
Stream size : 535 Bytes (0%)
Title : Forced [Off.]
Language : Russian
Default : Yes
Forced : Yes

Text #2
ID : 9
Format : UTF-8
Codec ID : S_TEXT/UTF8
Codec ID/Info : UTF-8 Plain Text
Duration : 1 h 26 min
Bit rate : 1 b/s
Frame rate : 0.005 FPS
Count of elements : 27
Stream size : 1.24 KiB (0%)
Title : Forced [HDRezka Studio]
Language : Russian
Default : No
Forced : No

Text #3
ID : 10
Format : UTF-8
Codec ID : S_TEXT/UTF8
Codec ID/Info : UTF-8 Plain Text
Duration : 1 h 27 min
Bit rate : 43 b/s
Frame rate : 0.120 FPS
Count of elements : 635
Stream size : 28.2 KiB (0%)
Title : Full [misanthrope]
Language : Russian
Default : No
Forced : No

Text #4
ID : 11
Format : UTF-8
Codec ID : S_TEXT/UTF8
Codec ID/Info : UTF-8 Plain Text
Duration : 1 h 35 min
Bit rate : 40 b/s
Frame rate : 0.111 FPS
Count of elements : 636
Stream size : 28.0 KiB (0%)
Title : Full [Off.]
Language : Ukrainian
Default : No
Forced : No

Text #5
ID : 12
Format : UTF-8
Codec ID : S_TEXT/UTF8
Codec ID/Info : UTF-8 Plain Text
Duration : 1 h 27 min
Bit rate : 27 b/s
Frame rate : 0.124 FPS
Count of elements : 656
Stream size : 17.9 KiB (0%)
Title : Full
Language : English
Default : No
Forced : No

Text #6
ID : 13
Format : UTF-8
Codec ID : S_TEXT/UTF8
Codec ID/Info : UTF-8 Plain Text
Duration : 1 h 36 min
Bit rate : 38 b/s
Frame rate : 0.191 FPS
Count of elements : 1103
Stream size : 26.8 KiB (0%)
Title : SDH
Language : English
Default : No
Forced : No

Menu
00:00:00.000 : en:Chapter 01
00:11:02.871 : en:Chapter 02
00:21:20.030 : en:Chapter 03
00:30:10.352 : en:Chapter 04
00:39:46.720 : en:Chapter 05
00:50:15.098 : en:Chapter 06
01:00:02.143 : en:Chapter 07
01:09:21.327 : en:Chapter 08
01:18:26.164 : en:Chapter 09
01:30:09.909 : en:Chapter 10

Другие фильмы
У данной публикации пока нет комментариев.
Будь первым, оставь своё мнение в комментариях!
Информация
Посетители, находящиеся в группе Гости, не могут оставлять комментарии к данной публикации.
Самый популярный релиз недели
Донаты
Мы в соц. сетях / RSS

Лучшие релизы месяца
Лучшие SD недели
Лучшие 720p недели
Лучшие 1080p недели
Лучшие 4K недели
Вы недавно смотрели
Реклама
Последние комментарии
...

korelov

23 февраля 2024 14:35

...

Desol

21 февраля 2024 00:28

...

diabloq

20 февраля 2024 14:17

...

slightlymad

17 февраля 2024 21:01

...

takezi

15 февраля 2024 22:10

Реклама