+8

Искусительница / The Artifice Girl (2022) BDRip 720p от DoMiNo & селезень | P

Информация о фильме
Название: Искусительница
Оригинальное название: The Artifice Girl
Год выхода: 2022
Жанр: Фантастика, триллер, детектив
Режиссер: Рич Франклин
В ролях: Татум Мэтьюз, Лэнс Хенриксен, Синда Николс, Дэвид Жирар, Франклин Ритч, Ивана Барнс, Томас Хэмби, Алисса Муди, Люси Ноэль, Рашо Сешнс

О фильме:
Команда агентов по борьбе с преступлениями в интернете, обладает особым инструментом в борьбе с незаконными действиями в виртуальном пространстве. Это нейросеть, способная выследить и задержать людей, занимающихся сексуальными извращениями. Таким образом, они помогают обезопасить общество от преступников, злоупотребляющих возможностями интернета.

Страна: США
Студия: Blood Oath, Last Resort Ideas, Paper Street Pictures
Продолжительность: 01:33:28
Перевод: Профессиональный (многоголосый, закадровый) | TVShows
Субтитры: Русские (Full), английские

Файл
Формат: Matroska
Качество: BDRip 720p [Исх.The.Artifice.Girl.2022.MULTi.COMPLETE.BLURAY-GMA]
Видео: 1280×536 at 23.976 fps, [email protected], ~2697 kbps
Аудио 1: AC3, 6 ch, ~384 kbps — | Русский | Искусительница / The Artifice Girl (2022) BDRip 720p от DoMiNo & селезень | P
Аудио 2: AC3, 6 ch, ~640 kbps — | Английский |
Формат субтитров: softsub (SRT)

Авторизуйтесь для получения доступа к скачиванию

Нет аккаунта? Регистрация открыта и займёт меньше минуты

Вход Регистрация

x264 [info]: frame I:875 Avg QP: 9.76 size: 90149
x264 [info]: frame P:27879 Avg QP:11.13 size: 32255
x264 [info]: frame B:105704 Avg QP:13.44 size: 8634
x264 [info]: consecutive B-frames: 1.0% 1.0% 4.6% 29.6% 17.5% 38.1% 5.5% 1.2% 0.5% 0.3% 0.7%

General
Unique ID : 131106861893645183317179719046872321743 (0x62A2435C10D29FE8664BDDC6F4664ECF)
Complete name : T:The Artifice Girl.2022.MVO.BDRip.720p.x264.seleZen.mkv
Format : Matroska
Format version : Version 4
File size : 2.47 GiB
Duration : 1 h 33 min
Overall bit rate : 3 788 kb/s
Frame rate : 23.976 FPS
Movie name : The Artifice Girl.2022.MVO.BDRip.720p.x264.seleZen
Encoded date : 2024-06-14 19:03:52 UTC
Writing application : mkvmerge v85.0 ('Shame For You') 64-bit
Writing library : libebml v1.4.5 + libmatroska v1.7.1
Cover : Yes
Attachments : cover.jpg / small_cover.jpg

Video
ID : 1
Format : AVC
Format/Info : Advanced Video Codec
Format profile : [email protected]
Format settings : CABAC / 12 Ref Frames
Format settings, CABAC : Yes
Format settings, Reference : 12 frames
Codec ID : V_MPEG4/ISO/AVC
Duration : 1 h 33 min
Bit rate : 2 697 kb/s
Width : 1 280 pixels
Height : 536 pixels
Display aspect ratio : 2.39:1
Frame rate mode : Constant
Frame rate : 23.976 (24000/1001) FPS
Color space : YUV
Chroma subsampling : 4:2:0
Bit depth : 8 bits
Scan type : Progressive
Bits/(Pixel*Frame) : 0.164
Stream size : 1.76 GiB (71%)
Title : -=DoMiNo=-
Writing library : x264 core 164 r3191 -DoMiNo
Encoding settings : cabac=1 / ref=12 / deblock=1:-3:-2 / analyse=0x3:0x133 / me=umh / subme=10 / psy=1 / psy_rd=1.05:0.05 / mixed_ref=1 / me_range=32 / chroma_me=1 / trellis=2 / 8x8dct=1 / cqm=0 / deadzone=21,11 / fast_pskip=0 / chroma_qp_offset=-3 / threads=17 / lookahead_threads=4 / sliced_threads=0 / nr=0 / decimate=1 / interlaced=0 / bluray_compat=0 / constrained_intra=0 / bframes=10 / b_pyramid=2 / b_adapt=2 / b_bias=0 / direct=3 / weightb=1 / open_gop=0 / weightp=2 / keyint=250 / keyint_min=23 / scenecut=40 / intra_refresh=0 / rc_lookahead=60 / rc=crf / mbtree=0 / crf=16.0 / qcomp=0.60 / qpmin=0 / qpmax=69 / qpstep=4 / vbv_maxrate=50000 / vbv_bufsize=62500 / crf_max=0.0 / nal_hrd=none / filler=0 / ip_ratio=1.40 / pb_ratio=1.30 / aq=3:0.80
Language : English
Default : Yes
Forced : No
Color range : Limited
Color primaries : BT.709
Transfer characteristics : BT.709
Matrix coefficients : BT.709

Audio #1
ID : 2
Format : AC-3
Format/Info : Audio Coding 3
Commercial name : Dolby Digital
Codec ID : A_AC3
Duration : 1 h 33 min
Bit rate mode : Constant
Bit rate : 448 kb/s
Channel(s) : 6 channels
Channel layout : L R C LFE Ls Rs
Sampling rate : 48.0 kHz
Frame rate : 31.250 FPS (1536 SPF)
Compression mode : Lossy
Stream size : 299 MiB (12%)
Title : MVO - TVShows
Language : Russian
Service kind : Complete Main
Default : Yes
Forced : No
Dialog Normalization : -31 dB
cmixlev : -4.5 dB
surmixlev : -6 dB
dialnorm_Average : -31 dB
dialnorm_Minimum : -31 dB
dialnorm_Maximum : -31 dB

Audio #2
ID : 3
Format : AC-3
Format/Info : Audio Coding 3
Commercial name : Dolby Digital
Codec ID : A_AC3
Duration : 1 h 33 min
Bit rate mode : Constant
Bit rate : 640 kb/s
Channel(s) : 6 channels
Channel layout : L R C LFE Ls Rs
Sampling rate : 48.0 kHz
Frame rate : 31.250 FPS (1536 SPF)
Compression mode : Lossy
Stream size : 428 MiB (17%)
Language : English
Service kind : Complete Main
Default : No
Forced : No
Dialog Normalization : -31 dB
cmixlev : -4.5 dB
surmixlev : -6 dB
dialnorm_Average : -31 dB
dialnorm_Minimum : -31 dB
dialnorm_Maximum : -31 dB

Text #1
ID : 4
Format : UTF-8
Codec ID : S_TEXT/UTF8
Codec ID/Info : UTF-8 Plain Text
Duration : 1 h 26 min
Bit rate : 132 b/s
Frame rate : 0.308 FPS
Count of elements : 1591
Stream size : 83.4 KiB (0%)
Title : Full
Language : Russian
Default : No
Forced : No

Text #2
ID : 5
Format : UTF-8
Codec ID : S_TEXT/UTF8
Codec ID/Info : UTF-8 Plain Text
Duration : 1 h 29 min
Bit rate : 91 b/s
Frame rate : 0.346 FPS
Count of elements : 1861
Stream size : 60.1 KiB (0%)
Title : Full
Language : English
Default : No
Forced : No

Text #3
ID : 6
Format : UTF-8
Codec ID : S_TEXT/UTF8
Codec ID/Info : UTF-8 Plain Text
Duration : 1 h 31 min
Bit rate : 92 b/s
Frame rate : 0.349 FPS
Count of elements : 1908
Stream size : 61.9 KiB (0%)
Title : SDH
Language : English
Default : No
Forced : No

Menu
00:00:00.000 : Глава 1
00:02:29.858 : Глава 2
00:08:55.618 : Глава 3
00:15:18.000 : Глава 4
00:26:38.888 : Глава 5
00:39:20.441 : Глава 6
00:50:01.373 : Глава 7
00:56:16.623 : Глава 8
01:06:35.908 : Глава 9
01:14:47.274 : Глава 10
01:21:12.200 : Глава 11
01:30:52.905 : Глава 12
01:33:28.019 : Глава 13

Другие фильмы
У данной публикации пока нет комментариев.
Будь первым, оставь своё мнение в комментариях!
Информация
Посетители, находящиеся в группе Гости, не могут оставлять комментарии к данной публикации.
Самый популярный релиз недели
Донаты
Мы в соц. сетях / RSS

Лучшие релизы месяца
Лучшие SD недели
Лучшие 720p недели
Лучшие 1080p недели
Лучшие 4K недели
Вы недавно смотрели
Реклама
Последние комментарии
...

fataxdd

16 июля 2024 07:13

...

Rustik99

12 июля 2024 10:11

...

Rograr

6 июля 2024 19:56

...

fenix

2 июля 2024 07:45

...

Fidelrus

28 июня 2024 13:53

Реклама