+6

Этому быть! / Presque / Beautiful Minds (2021) WEB-DLRip-AVC от DoMiNo & селезень | D

Информация о фильме
Название: Этому быть!
Оригинальное название: Presque / Beautiful Minds
Год выхода: 2021
Жанр: Драма, комедия
Режиссер: Бернар Кампан, Александр Жольен
В ролях: Бернар Кампан, Александр Жольен, Тифен Давьо, Жюли-Анна Рот, Ла Касту, Мари Бенати, Мэрилин Канто, Энн-Валери Пайе, София Мануша, Мари Петьё

О фильме:
Два абсолютно непохожих человека вынуждены вместе отправиться на юг Франции. Один счастлив не смотря ни на что, другой — вечно недоволен. В конце наполненного приключениями пути они поймут, что не так уж сильно отличаются друг от друга. Иногда стоит оглянуться вокруг и понять, что все познается в сравнении. И тогда жизнь заиграет новыми красками!

Страна: Франция, Швейцария
Студия: ABS, Angoa-Agicoa, Apollo Films, Canal+ [fr], Centre National de la Cinématographie (CNC), Cinéforom, Eurimages, France 3 Cinéma, France Télévision, Indéfilms 8, Les Productions JMH, Loterie Suisse Romande, OCS, Office Fédéral de la Culture, Pan Européenne Production, Procirep, Région Occitanie/Pyrénées-Méditerranée, Radio Télévision Suisse (RTS), SG Image 2018, SRG SSR idée suisse
Продолжительность: 01:28:05
Перевод: Дублированный | Мосфильм-Мастер
Субтитры: Английские (Full)

Файл
Формат: Matroska
Качество: WEB-DLRip-AVC
Видео: 1024x428 at 25.000 fps, [email protected], ~1927 kbps
Аудио: AC3, 6 ch, ~448 kbps - | Русский | Этому быть! / Presque / Beautiful Minds (2021) WEB-DLRip-AVC от DoMiNo & селезень | D
Формат субтитров: softsub (SRT)

Этому быть! / Presque / Beautiful Minds (2021) WEB-DLRip-AVC от DoMiNo & селезень | D

Авторизуйтесь для получения доступа к скачиванию

Нет аккаунта? Регистрация открыта и займёт меньше минуты

Вход Регистрация

x264 [info]: frame I:783 Avg QP:14.44 size: 61735
x264 [info]: frame P:31867 Avg QP:16.80 size: 19906
x264 [info]: frame B:99491 Avg QP:18.51 size: 5921
x264 [info]: consecutive B-frames: 1,5% 5,1% 5,9% 45,6% 14,7% 22,0% 2,5% 1,3% 0,4% 0,2% 0,2% 0,3% 0,2%

General
Unique ID : 107773743377275974322301202264128552694 (0×511477CC278BF336252BEB61F274FEF6)
Complete name : I:Presque.2021.WEB-DLRip.x264.seleZen.mkv
Format : Matroska
Format version : Version 4
File size : 1.46 GiB
Duration : 1 h 28 min
Overall bit rate : 2 375 kb/s
Movie name : Presque.2021.WEB-DLRip.x264.seleZen
Encoded date : UTC 31.01.2023 09:12:23
Writing application : mkvmerge v73.0.0 ('25 or 6 to 4') 64-bit
Writing library : libebml v1.4.4 + libmatroska v1.7.1
Cover : Yes
Attachments : cover.jpg / small_cover.jpg

Video
ID : 1
Format : AVC
Format/Info : Advanced Video Codec
Format profile : [email protected]
Format settings : CABAC / 11 Ref Frames
Format settings, CABAC : Yes
Format settings, Reference : 11 frames
Codec ID : V_MPEG4/ISO/AVC
Duration : 1 h 28 min
Bit rate : 1 927 kb/s
Width : 1 024 pixels
Height : 428 pixels
Display aspect ratio : 2.40:1
Frame rate mode : Constant
Frame rate : 25.000 FPS
Color space : YUV
Chroma subsampling : 4:2:0
Bit depth : 8 bits
Scan type : Progressive
Bits/(Pixel*Frame) : 0.176
Stream size : 1.18 GiB (81%)
Title : -=DoMiNo=-
Writing library : x264 core 164 by -=DoMiNo=-
Encoding settings : cabac=1 / ref=11 / deblock=1:-2:-1 / analyse=0×3:0×133 / me=umh / subme=10 / psy=1 / psy_rd=1.05:0.15 / mixed_ref=1 / me_range=32 / chroma_me=1 / trellis=2 / 8×8dct=1 / cqm=0 / deadzone=21,11 / fast_pskip=0 / chroma_qp_offset=-3 / threads=17 / lookahead_threads=3 / sliced_threads=0 / nr=0 / decimate=1 / interlaced=0 / bluray_compat=0 / constrained_intra=0 / bframes=12 / b_pyramid=2 / b_adapt=2 / b_bias=0 / direct=3 / weightb=1 / open_gop=0 / weightp=2 / keyint=250 / keyint_min=25 / scenecut=40 / intra_refresh=0 / rc=2pass / mbtree=0 / bitrate=1927 / ratetol=1.0 / qcomp=0.70 / qpmin=0 / qpmax=69 / qpstep=4 / cplxblur=20.0 / qblur=0.5 / ip_ratio=1.35 / pb_ratio=1.25 / aq=3:0.90
Language : English
Default : Yes
Forced : No
Color range : Limited
Matrix coefficients : BT.709

Audio
ID : 2
Format : AC-3
Format/Info : Audio Coding 3
Commercial name : Dolby Digital
Codec ID : A_AC3
Duration : 1 h 28 min
Bit rate mode : Constant
Bit rate : 448 kb/s
Channel (s) : 6 channels
Channel layout : L R C LFE Ls Rs
Sampling rate : 48.0 kHz
Frame rate : 31.250 FPS (1536 SPF)
Compression mode : Lossy
Stream size : 282 MiB (19%)
Title : Dub
Language : Russian
Service kind : Complete Main
Default : Yes
Forced : Yes

Text
ID : 3
Format : UTF-8
Codec ID : S_TEXT/UTF8
Codec ID/Info : UTF-8 Plain Text
Duration : 1 h 23 min
Bit rate : 45 b/s
Frame rate : 0.227 FPS
Count of elements : 1138
Stream size : 27.9 KiB (0%)
Title : Full
Language : English
Default : No
Forced : No

Menu
00:00:00.000 : en:Chapter 01
00:06:54.000 : en:Chapter 02
00:14:14.000 : en:Chapter 03
00:23:30.000 : en:Chapter 04
00:30:35.000 : en:Chapter 05
00:40:02.000 : en:Chapter 06
00:50:05.000 : en:Chapter 07
00:59:14.000 : en:Chapter 08
01:10:11.000 : en:Chapter 09
01:19:48.000 : en:Chapter 10

Другие фильмы
У данной публикации пока нет комментариев.
Будь первым, оставь своё мнение в комментариях!
Информация
Посетители, находящиеся в группе Гости, не могут оставлять комментарии к данной публикации.
Самый популярный релиз недели
Донаты
Мы в соц. сетях / RSS

Лучшие релизы месяца
Лучшие SD недели
Лучшие 720p недели
Лучшие 1080p недели
Лучшие 4K недели
Вы недавно смотрели
Реклама
Последние комментарии
...

korelov

23 февраля 2024 14:35

...

Desol

21 февраля 2024 00:28

...

diabloq

20 февраля 2024 14:17

...

slightlymad

17 февраля 2024 21:01

...

takezi

15 февраля 2024 22:10

Реклама