+9

Детектив Найт: Независимость / Detective Knight: Independence (2023) BDRip 720p от DoMiNo & селезень | D, P

Информация о фильме
Название: Детектив Найт: Независимость
Оригинальное название: Detective Knight: Independence
Год выхода: 2023
Жанр: Боевик, триллер
Режиссер: Эдвард Дрейк
В ролях: Брюс Уиллис, Лоренцо Антонуччи, Дэкс Кэмпбелл, Калеб Клифтон, Френсис Кронин, Ксавьер Эстрада, Джимми Жан-Луи, Крейн Джозеф, Кристофер Кит, Джек Килмер, Роберт Ланен

Описание:
В День независимости детективу Джеймсу Найту предстоит обезвредить бандитов, чтобы спасти городской праздник.

Страна: США
Студия: BondIt, Buffalo 8 Productions, Lionsgate
Продолжительность: 01:31:33
Перевод 1: Дублированный | Студия Позитив | OKKO
Перевод 2: Профессиональный (многоголосый, закадровый) | TVShows
Субтитры: Английские (Full, SDH)

Файл
Формат: Matroska
Качество: BDRip 720p
Видео: 1280×536 at 23.976 fps, [email protected], ~6692 kbps
Аудио 1: AC3, 2 ch, ~192 kbps — | Русский | Детектив Найт: Независимость / Detective Knight: Independence (2023) BDRip 720p от DoMiNo & селезень | D, P | Студия Позитив
Аудио 2: AC3, 2 ch, ~192 kbps — | Русский | | TVShows
Аудио 3: AC3, 6 ch, ~640 kbps — | Английский |
Формат субтитров: softsub (SRT)

Детектив Найт: Независимость / Detective Knight: Independence (2023) BDRip 720p от DoMiNo & селезень | D, P

Авторизуйтесь для получения доступа к скачиванию

Нет аккаунта? Регистрация открыта и займёт меньше минуты

Вход Регистрация

x264 [info]: frame I:808 Avg QP:18.70 size: 85083
x264 [info]: frame P:26242 Avg QP:19.76 size: 54978
x264 [info]: frame B:104663 Avg QP:21.33 size: 29465
x264 [info]: consecutive B-frames: 1.6% 2.5% 7.2% 12.1% 15.3% 44.3% 5.1% 0.7% 2.1% 3.3% 2.7% 1.1% 2.2%

General
Unique ID : 206670978656877711403568459277705901643 (0x9B7B61F4E619D06A091CA228E2BB764B)
Complete name : G:Detective.Knight.Independence.2023.D.P.BDRip.720p.x264.seleZen.mkv
Format : Matroska
Format version : Version 4
File size : 4.94 GiB
Duration : 1 h 31 min
Overall bit rate : 7 719 kb/s
Frame rate : 23.976 FPS
Movie name : Detective.Knight.Independence.2023.D.P.BDRip.720p.x264.seleZen
Encoded date : 2024-07-07 14:16:25 UTC
Writing application : mkvmerge v85.0 ('Shame For You') 64-bit
Writing library : libebml v1.4.5 + libmatroska v1.7.1
Cover : Yes
Attachments : cover.jpg / small_cover.jpg

Video
ID : 1
Format : AVC
Format/Info : Advanced Video Codec
Format profile : [email protected]
Format settings : CABAC / 12 Ref Frames
Format settings, CABAC : Yes
Format settings, Reference : 12 frames
Codec ID : V_MPEG4/ISO/AVC
Duration : 1 h 31 min
Bit rate : 6 692 kb/s
Width : 1 280 pixels
Height : 536 pixels
Display aspect ratio : 2.39:1
Frame rate mode : Constant
Frame rate : 23.976 (24000/1001) FPS
Color space : YUV
Chroma subsampling : 4:2:0
Bit depth : 8 bits
Scan type : Progressive
Bits/(Pixel*Frame) : 0.407
Stream size : 4.28 GiB (87%)
Title : -=DoMiNo=-
Writing library : x264 core 164 r3106+55M 24adf88 t_mod_New | by -=DoMiNo=- | X86_64]
Encoding settings : cabac=1 / ref=12 / deblock=1:-3:-3 / analyse=0x3:0x133 / me=umh / subme=10 / psy=1 / fade_compensate=0.00 / psy_rd=1.03:0.04 / mixed_ref=1 / me_range=32 / chroma_me=1 / trellis=2 / 8x8dct=1 / cqm=0 / deadzone=21,11 / fast_pskip=0 / chroma_qp_offset=-3 / threads=17 / lookahead_threads=4 / sliced_threads=0 / nr=0 / decimate=1 / interlaced=0 / bluray_compat=0 / constrained_intra=0 / fgo=0 / bframes=12 / b_pyramid=2 / b_adapt=2 / b_bias=0 / direct=3 / weightb=1 / open_gop=0 / weightp=2 / keyint=240 / keyint_min=23 / scenecut=40 / intra_refresh=0 / rc_lookahead=60 / rc=crf / mbtree=0 / crf=19.5000 / qcomp=0.60 / qpmin=0:0:0 / qpmax=69:69:69 / qpstep=4 / vbv_maxrate=50000 / vbv_bufsize=62500 / crf_max=0.0 / nal_hrd=none / filler=0 / ip_ratio=1.35 / pb_ratio=1.25 / aq=3:0.80 / aq-sensitivity=10.00 / aq-factor=1.00:1.00:1.00 / aq2=0 / aq3=0
Language : English
Default : Yes
Forced : No
Color range : Limited
Matrix coefficients : BT.709

Audio #1
ID : 2
Format : AC-3
Format/Info : Audio Coding 3
Commercial name : Dolby Digital
Codec ID : A_AC3
Duration : 1 h 31 min
Bit rate mode : Constant
Bit rate : 192 kb/s
Channel(s) : 2 channels
Channel layout : L R
Sampling rate : 48.0 kHz
Frame rate : 31.250 FPS (1536 SPF)
Compression mode : Lossy
Stream size : 126 MiB (2%)
Title : Dub - Студия Позитив
Language : Russian
Service kind : Complete Main
Default : Yes
Forced : No
Dialog Normalization : -31 dB
dialnorm_Average : -31 dB
dialnorm_Minimum : -31 dB
dialnorm_Maximum : -31 dB

Audio #2
ID : 3
Format : AC-3
Format/Info : Audio Coding 3
Commercial name : Dolby Digital
Codec ID : A_AC3
Duration : 1 h 31 min
Bit rate mode : Constant
Bit rate : 192 kb/s
Channel(s) : 2 channels
Channel layout : L R
Sampling rate : 48.0 kHz
Frame rate : 31.250 FPS (1536 SPF)
Compression mode : Lossy
Stream size : 126 MiB (2%)
Title : MVO_[TVShows]
Language : Russian
Service kind : Complete Main
Default : No
Forced : No
Dialog Normalization : -31 dB
dialnorm_Average : -31 dB
dialnorm_Minimum : -31 dB
dialnorm_Maximum : -31 dB

Audio #3
ID : 4
Format : AC-3
Format/Info : Audio Coding 3
Commercial name : Dolby Digital
Codec ID : A_AC3
Duration : 1 h 31 min
Bit rate mode : Constant
Bit rate : 640 kb/s
Channel(s) : 6 channels
Channel layout : L R C LFE Ls Rs
Sampling rate : 48.0 kHz
Frame rate : 31.250 FPS (1536 SPF)
Compression mode : Lossy
Stream size : 419 MiB (8%)
Title : Original
Language : English
Service kind : Complete Main
Default : No
Forced : No
Dialog Normalization : -31 dB
cmixlev : -4.5 dB
surmixlev : -6 dB
dialnorm_Average : -31 dB
dialnorm_Minimum : -31 dB
dialnorm_Maximum : -31 dB

Text #1
ID : 5
Format : UTF-8
Codec ID : S_TEXT/UTF8
Codec ID/Info : UTF-8 Plain Text
Duration : 1 h 27 min
Bit rate : 45 b/s
Frame rate : 0.191 FPS
Count of elements : 1000
Stream size : 29.3 KiB (0%)
Title : Full
Language : English
Default : No
Forced : No

Text #2
ID : 6
Format : UTF-8
Codec ID : S_TEXT/UTF8
Codec ID/Info : UTF-8 Plain Text
Duration : 1 h 27 min
Bit rate : 54 b/s
Frame rate : 0.225 FPS
Count of elements : 1177
Stream size : 34.8 KiB (0%)
Title : SDH
Language : English
Default : No
Forced : No

Menu
00:00:00.000 : en:Chapter 01
00:06:09.035 : en:Chapter 02
00:11:41.367 : en:Chapter 03
00:19:07.855 : en:Chapter 04
00:26:22.206 : en:Chapter 05
00:30:13.812 : en:Chapter 06
00:36:36.861 : en:Chapter 07
00:41:32.198 : en:Chapter 08
00:44:44.223 : en:Chapter 09
00:50:10.799 : en:Chapter 10
00:53:57.568 : en:Chapter 11
01:00:04.100 : en:Chapter 12
01:06:04.210 : en:Chapter 13
01:10:52.832 : en:Chapter 14
01:16:25.581 : en:Chapter 15
01:24:24.768 : en:Chapter 16

Другие фильмы
Комментарии:

...
rmzshka 27 января 2023 14:23
0

Когда в ролях даже не указали Брюса Уиллиса...anguished

Информация
Посетители, находящиеся в группе Гости, не могут оставлять комментарии к данной публикации.
Самый популярный релиз недели
Донаты
Мы в соц. сетях / RSS

Лучшие релизы месяца
Лучшие SD недели
Лучшие 720p недели
Лучшие 1080p недели
Лучшие 4K недели
Вы недавно смотрели
Реклама
Последние комментарии
...

fataxdd

16 июля 2024 07:13

...

Rustik99

12 июля 2024 10:11

...

Rograr

6 июля 2024 19:56

...

fenix

2 июля 2024 07:45

...

Fidelrus

28 июня 2024 13:53

Реклама